<?xml version="1.0" standalone="no"?>
<!DOCTYPE svg PUBLIC "-//W3C//DTD SVG 1.1//EN" "http://www.w3.org/Graphics/SVG/1.1/DTD/svg11.dtd" >
<svg xmlns="http://www.w3.org/2000/svg">
<metadata></metadata>
<defs>
<font id="roboto_monobold" horiz-adv-x="1229" >
<font-face units-per-em="2048" ascent="1536" descent="-512" />
<missing-glyph horiz-adv-x="500" />
<glyph horiz-adv-x="0" />
<glyph unicode="&#xd;" />
<glyph horiz-adv-x="0" />
<glyph horiz-adv-x="0" />
<glyph />
<glyph unicode="&#x9;" />
<glyph unicode=" " />
<glyph unicode="!" d="M446 136q0 33 11 61t32 49t51 32.5t68 11.5q37 0 67 -11.5t51 -32.5t32.5 -49t11.5 -61q0 -32 -11.5 -60t-32.5 -48t-51 -31.5t-67 -11.5q-38 0 -68 11.5t-51 31.5t-32 48t-11 60zM466 1456h285l-16 -947h-253z" />
<glyph unicode="&#x22;" d="M281 1008v528h206v-108l-29 -420h-177zM693 1008v528h205v-108l-28 -420h-177z" />
<glyph unicode="#" d="M41 410v169h258l52 290h-235v171h265l75 416h178l-74 -416h201l74 416h180l-75 -416h217v-171h-247l-52 -290h223v-169h-253l-73 -410h-179l73 410h-201l-73 -410h-179l73 410h-228zM478 579h201l51 290h-201z" />
<glyph unicode="$" d="M127 453h279q0 -72 21 -120.5t54.5 -77t76.5 -40.5t88 -12q107 0 162 50t55 129q0 42 -12.5 74.5t-40 59.5t-72 49.5t-107.5 44.5q-101 36 -184 76t-141.5 93t-90.5 123.5t-32 167.5q0 85 29 155.5t82 122.5t128 84t167 41v215h160v-217q90 -12 162 -49t122.5 -96.5 t78 -140t27.5 -180.5h-278q0 121 -55 183.5t-149 62.5q-51 0 -88.5 -13.5t-61.5 -38t-35.5 -57.5t-11.5 -72t11.5 -69.5t39 -56.5t72.5 -49.5t112 -47.5q101 -38 183 -78.5t140.5 -94t90 -124t31.5 -166.5q0 -88 -29 -158.5t-83 -121.5t-130 -81.5t-170 -39.5v-196h-159v196 q-85 8 -165 37.5t-141.5 85.5t-98.5 141.5t-37 205.5z" />
<glyph unicode="%" d="M35 1119v77q0 58 17.5 109t53 89t89 60.5t124.5 22.5q73 0 126.5 -22.5t88.5 -60.5t52.5 -89t17.5 -109v-77q0 -57 -17.5 -107.5t-52.5 -89t-88 -60.5t-125 -22t-125.5 22t-89 60.5t-53.5 89t-18 107.5zM223 1119q0 -23 5 -44.5t16.5 -38t30.5 -26t46 -9.5t45.5 9.5 t29.5 26t16 38t5 44.5v77q0 23 -5 44.5t-16.5 38t-30 26t-46.5 9.5q-27 0 -45 -9.5t-29.5 -26t-16.5 -38t-5 -44.5v-77zM279 263l561 1028l136 -65l-561 -1028zM623 259v78q0 57 18 108t53.5 89.5t89 60.5t124.5 22q73 0 126.5 -22t88.5 -60.5t52.5 -89.5t17.5 -108v-78 q0 -57 -17 -108t-52.5 -89t-88.5 -60t-125 -22t-126 22t-89.5 60t-53.5 89t-18 108zM811 259q0 -23 6 -44.5t18.5 -38t31 -26t43.5 -9.5q31 0 50 9.5t29 26t13 37.5t3 45v78q0 23 -5 44t-16.5 37.5t-30 26t-45.5 9.5t-46 -9.5t-30 -26t-16 -37.5t-5 -44v-78z" />
<glyph unicode="&#x26;" d="M75 371q0 66 18.5 121t52.5 102.5t81.5 89.5t106.5 83q-59 89 -91.5 168.5t-32.5 164.5q0 86 27.5 156t78.5 119t123 75.5t161 26.5q75 0 136.5 -27t105 -73.5t67.5 -107.5t24 -129q0 -51 -16 -96t-44 -84.5t-65.5 -74.5t-80.5 -66l-80 -65l247 -317q32 57 49.5 125 t17.5 146h238q0 -137 -36.5 -255.5t-114.5 -212.5l188 -240h-318l-65 83q-76 -51 -157.5 -77.5t-184.5 -26.5q-101 0 -182 29t-137.5 81t-86.5 124t-30 158zM354 387q0 -40 12 -74t34 -58.5t53.5 -38.5t69.5 -14q52 0 102 14t96 40l-263 342l-8 -6q-30 -29 -49 -57 t-29.5 -54t-14 -49.5t-3.5 -44.5zM462 1100q0 -45 18.5 -90.5t50.5 -96.5l93 69q31 20 47 41.5t22.5 41t6.5 35v24.5q0 24 -7 47t-20 41t-31.5 29t-41.5 11q-35 0 -61 -12t-43 -33t-25.5 -48.5t-8.5 -58.5z" />
<glyph unicode="'" d="M457 993v543h214v-142l-28 -401h-186z" />
<glyph unicode="(" d="M345 570v22q0 141 21.5 265.5t58.5 230t86.5 192.5t104.5 154t113.5 113.5t113.5 71.5l54 -152q-56 -43 -112 -115.5t-100.5 -180t-72.5 -250.5t-28 -327v-26q0 -185 28 -328t72.5 -250.5t100.5 -180.5t112 -116l-54 -150q-55 25 -113.5 72t-113.5 113.5t-104.5 153.5 t-86.5 192.5t-58.5 229.5t-21.5 266z" />
<glyph unicode=")" d="M316 -307q55 42 111 115t101 180t73 251t28 329v26q0 184 -29 328t-74 252t-100.5 181t-109.5 115l53 149q57 -25 117 -73t117 -116.5t107.5 -156t88.5 -193.5t60 -228.5t22 -259.5v-22q0 -137 -22 -259.5t-60 -228.5t-88.5 -193.5t-107.5 -156t-117 -116.5t-117 -73z " />
<glyph unicode="*" d="M154 733l66 205l375 -166l-36 431h219l-39 -438l372 163l66 -209l-398 -91l268 -323l-178 -129l-211 372l-211 -361l-179 123l278 327z" />
<glyph unicode="+" d="M99 558v254h367v394h265v-394h366v-254h-366v-412h-265v412h-367z" />
<glyph unicode="," d="M360 -330q19 36 35.5 73t28.5 78t19 87t7 101v234h261l-1 -221q0 -57 -15.5 -117t-42.5 -116t-64.5 -106t-80.5 -89z" />
<glyph unicode="-" d="M282 530v225h833v-225h-833z" />
<glyph unicode="." d="M422 161q0 39 13 72.5t38 58t61 39t81 14.5t81 -14.5t60.5 -39t38 -58t13.5 -72.5q0 -38 -13.5 -71t-38 -57.5t-60.5 -38.5t-81 -14t-81 14t-61 38.5t-38 57.5t-13 71z" />
<glyph unicode="/" d="M220 -125l545 1581h259l-545 -1581h-259z" />
<glyph unicode="0" d="M141 554v348q0 141 33 248.5t94.5 180t149 109.5t196.5 37q110 0 198 -37t149.5 -109.5t94.5 -180t33 -248.5v-348q0 -141 -32.5 -248.5t-93.5 -180t-149 -109.5t-198 -37q-109 0 -197 37t-149.5 109.5t-95 180t-33.5 248.5zM421 486q5 -144 53 -213.5t142 -69.5 q98 0 145.5 76t47.5 233v262zM421 674l388 289q-3 147 -51 218t-144 71q-97 0 -145 -75t-48 -231v-272z" />
<glyph unicode="1" d="M173 985v242l634 229h15v-1456h-281v1117z" />
<glyph unicode="2" d="M70 1001q0 97 37 183.5t104.5 151.5t163 102.5t211.5 37.5q111 0 196.5 -31t143 -87t87.5 -134.5t30 -173.5q0 -72 -22.5 -137.5t-64 -129.5t-99.5 -130.5t-129 -139.5l-274 -290h639v-223h-993v190l471 506q55 60 93 109t61.5 89.5t34 75.5t10.5 68q0 49 -14 87 t-39.5 64.5t-61 40.5t-78.5 14q-115 0 -171.5 -64t-56.5 -179h-279z" />
<glyph unicode="3" d="M96 396h278q0 -42 16 -77.5t45.5 -61t69.5 -40t88 -14.5q106 0 166 56t60 152q0 59 -17 101t-49.5 69t-78 40t-102.5 13h-151v216h151q114 0 169 57.5t55 150.5q0 43 -12.5 78.5t-37.5 61t-63.5 39.5t-89.5 14q-42 0 -78.5 -12t-64 -34.5t-43.5 -54.5t-16 -72h-278 q0 89 36.5 162t100.5 125.5t150.5 81.5t186.5 29q108 0 198 -26.5t154 -79t99.5 -130t35.5 -179.5q0 -47 -14 -92.5t-41 -86.5t-67 -75.5t-92 -59.5q61 -22 105.5 -56t73.5 -77.5t43 -95.5t14 -110q0 -102 -39 -182t-107 -134.5t-161.5 -83t-201.5 -28.5q-93 0 -181.5 25.5 t-157.5 77t-110.5 129.5t-41.5 184z" />
<glyph unicode="4" d="M59 490l612 966h282v-915h169v-225h-169v-316h-278v316h-605zM332 541h343v541l-27 -48z" />
<glyph unicode="5" d="M117 402h274q10 -95 68.5 -147t149.5 -52q56 0 95.5 21t64 58t36 88t11.5 110q0 58 -14.5 106.5t-44.5 83.5t-75 54t-106 19q-41 0 -71 -7t-53 -18t-41 -25.5t-34 -30.5l-222 55l83 739h808v-236h-579l-35 -320q31 18 88 37t131 19q105 0 187.5 -33.5t139 -96.5 t86.5 -154t30 -206q0 -98 -29 -186t-89 -155t-151 -106t-215 -39q-94 0 -181.5 28t-155.5 82t-110.5 132.5t-45.5 179.5z" />
<glyph unicode="6" d="M105 557v107q0 173 47 320.5t140 255t231 168t319 60.5h37v-231h-16q-110 0 -194.5 -29t-144 -82t-94 -127t-43.5 -165q23 25 53 49.5t67.5 44t81.5 31.5t95 12q104 0 181.5 -39.5t129.5 -107t77.5 -157t25.5 -188.5q0 -106 -34 -197t-97 -158t-153 -105.5t-202 -38.5 q-117 0 -211 43.5t-159.5 120.5t-101 182.5t-35.5 230.5zM384 523q0 -80 16.5 -140t46.5 -99.5t71 -59.5t89 -20q49 0 89 20.5t68 56.5t43 85.5t15 108.5t-15 109t-43 86.5t-68.5 57t-92.5 20.5q-75 0 -132.5 -40t-86.5 -103v-82z" />
<glyph unicode="7" d="M69 1229v227h1023v-155l-567 -1301h-293l568 1229h-731z" />
<glyph unicode="8" d="M109 398q0 60 16.5 113.5t46.5 98t72.5 80t95.5 60.5q-93 48 -146 130.5t-53 188.5q0 99 34 174.5t94.5 127.5t144 78.5t182.5 26.5t183 -26.5t145.5 -78.5t96 -127.5t34.5 -174.5q0 -106 -53.5 -188.5t-146.5 -131.5q106 -50 168.5 -140t62.5 -211q0 -103 -37.5 -181 t-103 -130.5t-154.5 -79.5t-192 -27q-104 0 -193.5 27t-155.5 79.5t-103.5 130.5t-37.5 181zM388 417q0 -100 57 -157t154 -57q46 0 84 14.5t65.5 42.5t43 67.5t15.5 89.5t-15 90t-42.5 68.5t-66 43.5t-86.5 15t-86.5 -15t-65.5 -43.5t-42 -68.5t-15 -90zM419 1056 q0 -44 12 -80.5t35.5 -62.5t57 -40.5t75.5 -14.5t75 14.5t56 40.5t35.5 62.5t12.5 80.5t-13 80t-36.5 61.5t-57 39.5t-75.5 14q-85 0 -131 -52t-46 -143z" />
<glyph unicode="9" d="M97 962q0 106 33.5 199.5t96.5 163.5t152.5 110.5t201.5 40.5q114 0 205 -44t154.5 -123t97 -188t33.5 -239v-96q0 -174 -43 -320t-133 -252.5t-229 -166t-332 -59.5h-21v233h19q112 0 194 24t137.5 69.5t86 111t39.5 148.5q-42 -42 -108 -72t-160 -30q-104 0 -183 38 t-132.5 104t-81 155.5t-27.5 192.5zM374 966q0 -56 13 -107t39.5 -89t66.5 -60.5t94 -22.5q38 0 70.5 11t59 30.5t46 46t31.5 57.5v99q0 80 -16.5 140t-45.5 100t-68 60t-84 20q-49 0 -87.5 -23.5t-64.5 -63t-40 -91t-14 -107.5z" />
<glyph unicode=":" d="M436 161q0 39 13 72.5t38 58t61 39t81 14.5t81 -14.5t60.5 -39t38 -58t13.5 -72.5q0 -38 -13.5 -71t-38 -57.5t-60.5 -38.5t-81 -14t-81 14t-61 38.5t-38 57.5t-13 71zM436 987q0 39 13 72.5t38 58t61 39t81 14.5t81 -14.5t60.5 -39t38 -58t13.5 -72.5q0 -38 -13.5 -71 t-38 -57.5t-60.5 -38.5t-81 -14t-81 14t-61 38.5t-38 57.5t-13 71z" />
<glyph unicode=";" d="M436 -330q19 36 35.5 73t28.5 78t19 87t7 101v234h261l-1 -221q0 -57 -15.5 -117t-42.5 -116t-64.5 -106t-80.5 -89zM475 987q0 39 13 72.5t38 58t61 39t81 14.5t81 -14.5t60.5 -39t38 -58t13.5 -72.5q0 -38 -13.5 -71t-38 -57.5t-60.5 -38.5t-81 -14t-81 14t-61 38.5 t-38 57.5t-13 71z" />
<glyph unicode="&#x3c;" d="M156 511v225l885 367v-270l-548 -186l-68 -25l68 -24l548 -183v-271z" />
<glyph unicode="=" d="M158 286v227h946v-227h-946zM158 717v228h946v-228h-946z" />
<glyph unicode="&#x3e;" d="M161 143v270l573 192l61 20l-60 20l-574 189v269l900 -366v-227z" />
<glyph unicode="?" d="M160 1075q1 102 38 177.5t100 125.5t148 74.5t184 24.5q111 0 199 -25t148.5 -74.5t92.5 -122.5t32 -169q0 -71 -24 -129.5t-62 -109t-86.5 -96t-97.5 -88.5q-30 -30 -47 -53t-24.5 -47t-9.5 -52.5t-2 -68.5h-250q0 69 3.5 117t16.5 86.5t39 71t73 69.5q34 31 68 65.5 t61.5 71t44.5 74.5t17 76q0 91 -49 133t-143 42q-36 0 -70 -9.5t-60.5 -30.5t-43 -54t-17.5 -79h-279zM458 139q0 33 11 61.5t32 49.5t51 32.5t68 11.5q37 0 67.5 -11.5t51.5 -32.5t32.5 -49.5t11.5 -61.5q0 -32 -11.5 -60t-32.5 -48t-51.5 -31.5t-67.5 -11.5 q-38 0 -68 11.5t-51 31.5t-32 48t-11 60z" />
<glyph unicode="@" d="M42 680q5 158 52.5 297t130 242.5t195.5 163t249 59.5q118 0 213 -44.5t160.5 -126t98.5 -195.5t29 -253q-3 -94 -21 -186.5t-53.5 -166t-90.5 -119t-132 -45.5q-51 0 -92.5 25.5t-65.5 73.5q-32 -45 -74.5 -71t-92.5 -26q-60 0 -105 27t-73 77.5t-38.5 121.5t-2.5 158 q11 102 39.5 184t73.5 140.5t106 90t137 31.5q78 0 127.5 -23t80.5 -53l-43 -527q-2 -29 1.5 -45t11 -24t17.5 -10t20 -2q26 0 47.5 27t37.5 75t24.5 114.5t8.5 145.5q4 122 -17.5 211.5t-67.5 147.5t-115 86t-159 28q-102 0 -183.5 -45.5t-139 -126.5t-90.5 -192.5 t-37 -244.5q-5 -134 18.5 -234t73 -166.5t125 -99.5t173.5 -33q31 0 64 4t64.5 11.5t60 17.5t51.5 22l32 -135q-26 -19 -59.5 -33t-70.5 -23.5t-74 -14t-71 -4.5q-146 0 -252 48t-175 137t-100.5 216.5t-26.5 286.5zM502 692q-6 -115 18.5 -173t73.5 -58q24 0 49 12.5 t48 48.5q0 3 0.5 6.5t0.5 6.5l38 447q-15 3 -31 3q-87 0 -134.5 -75t-62.5 -218z" />
<glyph unicode="A" d="M28 0l477 1456h255l468 -1456h-296l-85 304h-437l-86 -304h-296zM479 543h302l-149 536z" />
<glyph unicode="B" d="M129 0v1456h489q119 0 216.5 -24t166.5 -73t106.5 -124t37.5 -177q-1 -102 -54.5 -183t-157.5 -123q63 -16 109 -48t76.5 -75.5t45 -95t14.5 -106.5q0 -105 -36 -185t-103 -134t-163 -81t-216 -27h-531zM411 227h250q115 1 175.5 56.5t60.5 149.5q0 97 -54 152 q-55 56 -170 57h-262v-415zM411 845h209q117 1 180 49t64 141q0 102 -63 146.5t-182 45.5h-208v-382z" />
<glyph unicode="C" d="M79 629v196q0 145 38 265t108 206t169.5 133.5t223.5 47.5q120 0 213.5 -34t159.5 -97t104 -154t48 -205h-280q-4 65 -19.5 114t-45 81.5t-74 49t-106.5 16.5q-65 0 -113 -28t-79.5 -82t-46.5 -132.5t-15 -178.5v-198q0 -215 60.5 -318t191.5 -103q110 0 174 58.5 t71 189.5h281q-7 -110 -47.5 -198t-108.5 -150t-162 -95.5t-208 -33.5q-129 0 -229 47.5t-168 133t-104 205.5t-36 264z" />
<glyph unicode="D" d="M125 0v1456h377q145 0 262.5 -49.5t201 -138t129 -211.5t45.5 -270v-120q0 -147 -45.5 -269.5t-127.5 -211t-197 -137.5t-254 -49h-391zM408 226h108q79 0 141.5 30t106 87t66.5 138.5t23 185.5v122q0 98 -22.5 178.5t-67 138.5t-110 90t-151.5 32h-94v-1002z" />
<glyph unicode="E" d="M147 0v1456h978v-229h-696v-367h598v-222h-598v-411h699v-227h-981z" />
<glyph unicode="F" d="M149 0v1456h984v-229h-702v-396h624v-228h-624v-603h-282z" />
<glyph unicode="G" d="M87 628v198q0 153 40.5 273.5t112 204.5t168 128t209.5 44q123 0 214.5 -31t154.5 -89.5t98.5 -142.5t46.5 -189h-274q-14 112 -67.5 168.5t-165.5 56.5q-54 0 -100 -27.5t-80 -80.5t-54 -131.5t-20 -181.5v-200q1 -204 68 -312.5t205 -109.5q33 0 65 5t60 14t49.5 20.5 t32.5 24.5l1 264h-241v210h521l1 -574q-27 -33 -74 -67t-111.5 -61.5t-144.5 -44.5t-172 -17q-124 0 -224 44t-171 127t-109.5 203.5t-38.5 273.5z" />
<glyph unicode="H" d="M123 0v1456h279v-597h412v597h278v-1456h-278v631h-412v-631h-279z" />
<glyph unicode="I" d="M193 0v226h277v1003h-277v227h842v-227h-284v-1003h284v-226h-842z" />
<glyph unicode="J" d="M111 428h282q1 -117 52 -169.5t158 -52.5q48 0 88 18.5t68 50.5t43.5 76.5t15.5 95.5v1009h281l1 -1009q-1 -104 -39.5 -189.5t-105.5 -147.5t-157.5 -96t-194.5 -34q-110 0 -200 28t-154.5 83.5t-100.5 139.5t-37 197z" />
<glyph unicode="K" d="M129 0v1456h282v-667l132 178l354 489h344l-490 -644l508 -812h-334l-360 598l-154 -169v-429h-282z" />
<glyph unicode="L" d="M150 0v1456h282v-1229h682v-227h-964z" />
<glyph unicode="M" d="M127 0v1456h349l138 -547l157 547h349v-1456h-258v431l12 681l-191 -632h-139l-171 605l12 -654v-431h-258z" />
<glyph unicode="N" d="M123 0v1456h283l402 -935l1 935h282v-1456h-280l-405 939v-939h-283z" />
<glyph unicode="O" d="M80 621v212q0 140 35 258t102 203.5t164.5 133.5t223.5 48q127 0 227.5 -48t170.5 -133.5t107 -203.5t37 -258v-212q0 -140 -37 -258t-107 -203t-170.5 -132.5t-226.5 -47.5t-224 47.5t-165 133t-102 203t-35 257.5zM365 621q0 -88 12 -163t40 -130t74 -86t115 -31 q68 0 116.5 31t79 85.5t45.5 129.5t15 164v214q0 89 -14.5 164t-45.5 129t-79.5 84.5t-117.5 30.5q-68 0 -114 -30.5t-74 -84.5t-40 -129t-12 -164v-214z" />
<glyph unicode="P" d="M149 0v1456h498q119 0 215 -34.5t163.5 -96t104 -147.5t36.5 -191q0 -98 -36.5 -181t-104 -143.5t-163.5 -94.5t-215 -34h-217v-534h-281zM430 762h217q60 0 104 18t73.5 49t44 71.5t14.5 84.5q0 51 -14.5 95t-44 77t-73.5 52t-104 19h-217v-466z" />
<glyph unicode="Q" d="M85 577v252q0 141 35 259.5t102.5 204.5t165.5 134.5t224 48.5q127 0 228 -48.5t171 -134.5t107.5 -204.5t37.5 -259.5v-252q-1 -134 -46.5 -252.5t-133.5 -202.5l241 -218l-181 -161l-277 256q-35 -9 -71.5 -14t-75.5 -5q-126 0 -224 48.5t-165.5 131t-102.5 190.5 t-35 227zM370 577q0 -68 12 -133.5t40 -117t74.5 -83.5t115.5 -32q70 0 119 31.5t80 83.5t45.5 117.5t14.5 133.5v254q0 90 -14.5 165.5t-45.5 130.5t-80 85.5t-119 30.5q-69 0 -115.5 -31t-74.5 -85.5t-40 -130t-12 -165.5v-254z" />
<glyph unicode="R" d="M131 0v1456h488q121 0 219 -28.5t167.5 -83.5t107 -137t37.5 -190q0 -78 -18.5 -140.5t-53 -112t-83 -86.5t-108.5 -64l313 -601v-13h-301l-274 544h-213v-544h-281zM412 772h208q119 0 183.5 60.5t64.5 165.5q0 109 -63 169.5t-186 60.5h-207v-456z" />
<glyph unicode="S" d="M89 452h276q2 -66 23 -113t58.5 -77t90 -44t115.5 -14q56 0 99.5 13t73.5 36t46 55.5t16 71.5t-13.5 73t-46 63.5t-85 54t-130.5 45.5q-95 26 -181.5 65t-152.5 94t-105.5 128t-39.5 168q0 92 39 167t108 128t163 81.5t204 28.5q114 0 208.5 -33t162.5 -92.5t106 -141.5 t38 -180h-274q-2 49 -17.5 90t-46 70.5t-76 46t-106.5 16.5q-56 0 -99.5 -13.5t-73.5 -38t-45.5 -58t-15.5 -72.5q0 -41 20.5 -74t59.5 -59.5t94.5 -48.5t125.5 -41q100 -29 184 -71t144.5 -99.5t94 -131t33.5 -163.5q0 -96 -38.5 -170.5t-106.5 -126t-162 -78t-205 -26.5 q-69 0 -137.5 12.5t-131 38.5t-116.5 65t-93.5 91t-62 118t-22.5 146z" />
<glyph unicode="T" d="M27 1227v229h1174v-229h-449v-1227h-282v1227h-443z" />
<glyph unicode="U" d="M126 491l1 965h281l1 -965q1 -141 51.5 -213t147.5 -72q103 0 157.5 72t55.5 213l1 965h279l1 -965q0 -122 -33.5 -217t-97 -160.5t-155 -99.5t-208.5 -34q-110 0 -198.5 34t-151.5 99t-97.5 160.5t-34.5 217.5z" />
<glyph unicode="V" d="M31 1456h310l272 -1049l275 1049h310l-441 -1456h-286z" />
<glyph unicode="W" d="M26 1456h257l104 -871l124 871h201l131 -877l106 877h258l-202 -1456h-254l-138 860l-133 -860h-254z" />
<glyph unicode="X" d="M30 0l420 734l-409 722h328l255 -522l259 522h330l-410 -722l420 -734h-328l-267 530l-266 -530h-332z" />
<glyph unicode="Y" d="M33 1456h308l287 -671l287 671h309l-458 -952l-1 -504h-280l-1 516z" />
<glyph unicode="Z" d="M89 0v172l706 1055h-704v229h1044l1 -167l-705 -1062h722v-227h-1064z" />
<glyph unicode="[" d="M400 -335v2025h447v-215h-170v-1595h170v-215h-447z" />
<glyph unicode="\" d="M240 1456h260l545 -1581h-260z" />
<glyph unicode="]" d="M400 -120h171v1595h-171v215h448v-2025h-448v215z" />
<glyph unicode="^" d="M213 687l319 769h201l318 -769h-223l-176 454l-21 84l-21 -84l-173 -454h-224z" />
<glyph unicode="_" d="M148 0h912v-217h-912v217z" />
<glyph unicode="`" d="M411 1478h306l177 -279h-219z" />
<glyph unicode="a" d="M115 303q0 171 127.5 264.5t380.5 93.5h155v64q0 78 -51 123.5t-147 45.5q-85 0 -124 -36.5t-39 -97.5h-278q0 69 30.5 131t89 109t143 74.5t193.5 27.5q98 0 182.5 -24t146.5 -71t97 -118.5t35 -165.5v-464q0 -87 11 -144t32 -98v-17h-282q-10 20 -17 46t-12 55 q-23 -25 -53 -47t-66.5 -38.5t-80.5 -26t-95 -9.5q-83 0 -152.5 24t-119.5 67t-78 102.5t-28 129.5zM393 325q0 -56 39.5 -93t119.5 -37q42 0 78 10t65 26t50 36.5t33 41.5v186h-142q-65 0 -111 -12.5t-75 -35t-43 -54t-14 -68.5z" />
<glyph unicode="b" d="M147 0v1536h278v-552q48 56 113.5 87t153.5 31q106 0 185.5 -41t132.5 -114t79.5 -174.5t26.5 -221.5v-21q0 -121 -26.5 -222t-79.5 -174t-132 -113.5t-184 -40.5q-95 0 -164.5 35.5t-119.5 99.5l-13 -115h-250zM425 325q26 -56 73.5 -88t125.5 -32q63 0 104 24.5 t65.5 68t34.5 103t10 129.5v21q0 66 -10 125t-34.5 103.5t-66.5 70.5t-105 26q-76 0 -123.5 -32t-73.5 -88v-431z" />
<glyph unicode="c" d="M117 525v30q0 114 32 213.5t96 173.5t158.5 117t219.5 43q100 0 185 -30t146 -84q62 -54 96 -132q32 -73 32 -163v-11h-262v10q0 35 -12 66q-14 36 -41 62t-65 41.5t-83 15.5q-66 0 -109 -27t-68.5 -72t-36 -103t-10.5 -120v-30q0 -63 10 -121.5t35.5 -103t69 -71.5 t110.5 -27q41 0 78 12t65 34q27 22 43 53q14 27 14 60v9h262v-9q0 -79 -34 -147q-36 -72 -99.5 -124t-147 -81.5t-176.5 -29.5q-126 0 -221 42.5t-158.5 116.5t-96 173.5t-32.5 213.5z" />
<glyph unicode="d" d="M112 528v21q0 123 28.5 225t83.5 175t133.5 113t179.5 40q85 0 149.5 -30.5t114.5 -86.5v551h279v-1536h-251l-14 113q-51 -63 -120 -98t-160 -35q-99 0 -177.5 41.5t-133 114.5t-83.5 173.5t-29 218.5zM390 528q0 -68 11.5 -126.5t37.5 -102t67 -68.5t100 -25 q72 0 119.5 31t75.5 85v438q-28 55 -75 85.5t-118 30.5q-59 0 -100.5 -25.5t-67.5 -70t-38 -104t-12 -127.5v-21z" />
<glyph unicode="e" d="M112 503v40q0 124 39 226.5t109 176.5t166 115t209 41q117 0 208.5 -38.5t155 -108.5t96.5 -168.5t33 -217.5v-118h-734q8 -55 32.5 -100.5t62.5 -78.5t87 -51t107 -18q41 0 81.5 8t77.5 23.5t69 38.5t56 54l139 -150q-26 -37 -67.5 -72.5t-98 -63t-125.5 -44.5t-149 -17 q-125 0 -227 41t-175 111.5t-112.5 166t-39.5 204.5zM399 643h456v22q-2 44 -17 83t-43 67.5t-68.5 45t-93.5 16.5q-47 0 -86 -16.5t-68.5 -47.5t-49.5 -74t-30 -96z" />
<glyph unicode="f" d="M126 877v205h284v59q0 107 34 189t97 138t153 84.5t201 28.5q35 0 67.5 -2.5t63.5 -6.5t62.5 -9t65.5 -11l-18 -218q-38 8 -86 14t-113 6q-130 0 -189 -55t-59 -158v-59h390v-205h-390v-877h-279v877h-284z" />
<glyph unicode="g" d="M113 528v21q0 123 30.5 225t87.5 175t138 113t183 40q95 0 163 -32t116 -91l11 103h253v-1047q0 -110 -37.5 -196t-105 -145t-162 -89.5t-208.5 -30.5q-49 0 -105 10t-111 31t-104 53.5t-84 77.5l125 169q53 -60 120 -91.5t145 -31.5q117 0 182.5 62.5t65.5 177.5v62 q-49 -54 -114.5 -84t-151.5 -30q-101 0 -181.5 41.5t-137.5 114.5t-87.5 173.5t-30.5 218.5zM392 528q0 -68 13.5 -126.5t41.5 -102t71 -68.5t102 -25q73 0 120.5 28t75.5 78v458q-28 51 -75.5 78.5t-118.5 27.5q-59 0 -102 -25.5t-71.5 -70t-42.5 -104t-14 -127.5v-21z" />
<glyph unicode="h" d="M141 0v1536h278v-603q54 79 131.5 124t173.5 45q85 0 156 -25.5t122 -79.5t79.5 -138.5t28.5 -203.5v-655h-278v657q0 58 -14.5 100t-41.5 68t-65 38.5t-86 12.5q-70 0 -121.5 -25t-84.5 -70v-781h-278z" />
<glyph unicode="i" d="M215 0v226h308v629h-308v227h589v-856h293v-226h-882zM503 1359q0 32 11.5 59.5t32.5 47t50.5 30.5t65.5 11q74 0 117.5 -41.5t43.5 -106.5t-43.5 -106.5t-117.5 -41.5q-36 0 -65.5 11t-50.5 30.5t-32.5 47t-11.5 59.5z" />
<glyph unicode="j" d="M223 -420l14 226q12 -3 33.5 -5.5t44 -4t43 -2t30.5 -0.5q40 0 75.5 9t61 30t40.5 55.5t15 86.5v880h-273v227h554v-1107q0 -108 -31 -185.5t-90 -128t-144 -74.5t-194 -24q-45 0 -91 3.5t-88 13.5zM561 1359q0 32 11.5 59.5t32 47t50 30.5t65.5 11q74 0 117.5 -41.5 t43.5 -106.5t-43.5 -106.5t-117.5 -41.5q-36 0 -65.5 11t-50 30.5t-32 47t-11.5 59.5z" />
<glyph unicode="k" d="M144 0v1536h278v-878l84 96l299 328h334l-408 -451l465 -631h-341l-307 447l-126 -117v-330h-278z" />
<glyph unicode="l" d="M199 0v226h324v1083h-324v227h605v-1310h310v-226h-915z" />
<glyph unicode="m" d="M75 0v1082h239l8 -131q31 70 85.5 110.5t132.5 40.5q131 0 171 -115q32 54 81.5 84.5t119.5 30.5q49 0 91.5 -18t74 -57.5t49 -102t17.5 -152.5v-772h-253v773q0 31 -6.5 51t-17.5 31.5t-25.5 16t-29.5 4.5q-29 0 -49 -13.5t-31 -36.5v-826h-245v774q0 31 -6 51t-16.5 31 t-24.5 15.5t-30 4.5q-32 0 -51.5 -18t-30.5 -48v-810h-253z" />
<glyph unicode="n" d="M141 0v1082h252l17 -150q58 81 141 125.5t184 44.5q82 0 150 -24t117.5 -76.5t77 -135t27.5 -200.5v-666h-278v662q0 64 -14.5 105.5t-41.5 65.5t-65 33.5t-86 9.5q-71 0 -121 -28.5t-81 -78.5v-769h-279z" />
<glyph unicode="o" d="M103 530v21q0 118 34 218.5t99.5 174.5t160 116t216.5 42t217 -42t160.5 -116t99.5 -174.5t34 -218.5v-21q0 -119 -34 -219.5t-99 -174.5t-160 -115.5t-216 -41.5q-122 0 -217.5 41.5t-161 115.5t-99.5 174.5t-34 219.5zM381 530q0 -68 13 -127.5t41 -104t72.5 -70.5 t107.5 -26q61 0 105 26t71.5 70.5t40.5 104t13 127.5v21q0 66 -13 125t-40.5 104t-71.5 71t-107 26q-62 0 -106 -26t-72 -71t-41 -104t-13 -125v-21z" />
<glyph unicode="p" d="M145 -416v1498h257l10 -106q50 60 118 93t159 33q103 0 182 -39.5t133 -112t81.5 -174t27.5 -224.5v-21q0 -118 -27.5 -219t-81 -174.5t-132.5 -115.5t-181 -42q-87 0 -153 30t-115 84v-510h-278zM423 315q26 -51 72.5 -81.5t121.5 -30.5q59 0 100.5 26t67.5 71t38 104.5 t12 126.5v21q0 68 -12.5 127.5t-39 103t-68 68.5t-100.5 25q-73 0 -119.5 -28.5t-72.5 -80.5v-452z" />
<glyph unicode="q" d="M113 529v21q0 123 28 225t82.5 174.5t134 112.5t182.5 40q92 0 160.5 -34t118.5 -96l17 110h245v-1498h-279v508q-49 -54 -114 -83t-150 -29q-102 0 -181 41.5t-133 115t-82.5 174t-28.5 218.5zM391 529q0 -67 12 -126t38 -103.5t67.5 -70.5t100.5 -26q73 0 119.5 29 t73.5 80v460q-27 50 -73.5 77.5t-117.5 27.5q-59 0 -100.5 -25.5t-68 -69.5t-39 -103.5t-12.5 -128.5v-21z" />
<glyph unicode="r" d="M287 0v1082h259l13 -177q66 92 158 144.5t201 52.5q63 0 116.5 -8.5t86.5 -18.5l-41 -277q-55 13 -112.5 19.5t-109.5 6.5q-117 0 -187.5 -45t-105.5 -129v-650h-278z" />
<glyph unicode="s" d="M122 343h265q3 -44 24 -75.5t54 -51t75.5 -28.5t87.5 -9q103 0 157 33t54 85q0 25 -11.5 44t-41 35.5t-78.5 30.5t-124 28q-95 19 -173.5 47.5t-134.5 69t-87.5 93.5t-31.5 122q0 67 32 128t92 107t146 73t194 27q113 0 203 -26.5t152.5 -73t95.5 -110.5t33 -139h-278 q0 63 -51 105.5t-155 42.5q-97 0 -146.5 -35t-49.5 -86q0 -24 10 -44.5t35.5 -37t69.5 -30t112 -23.5q98 -16 182 -41t145 -64.5t95.5 -96t34.5 -134.5q0 -72 -34.5 -132.5t-98 -104.5t-153.5 -68.5t-201 -24.5q-122 0 -215.5 32t-156.5 83.5t-95.5 117t-32.5 131.5z" />
<glyph unicode="t" d="M126 877v205h247v265h278v-265h404v-205h-404v-465q0 -59 13.5 -98.5t38.5 -63t60.5 -33.5t79.5 -10q32 0 65.5 3t64 7.5t57 9.5t45.5 10l27 -191q-29 -17 -68 -29.5t-83 -20.5t-91.5 -12.5t-93.5 -4.5q-89 0 -161.5 23.5t-124 73t-79.5 126t-28 183.5v492h-247z" />
<glyph unicode="u" d="M150 442v640h278v-642q0 -66 9.5 -111t30.5 -72.5t55 -39.5t83 -12q83 0 135 31.5t79 86.5v759h279v-1082h-252l-16 152q-55 -81 -132.5 -127t-169.5 -46q-84 0 -154 26t-120 82.5t-77.5 144t-27.5 210.5z" />
<glyph unicode="v" d="M72 1082h290l239 -761l14 -78l14 75l238 764h290l-411 -1082h-261z" />
<glyph unicode="w" d="M27 1082h254l94 -746l136 746h186l136 -743l94 743h255l-194 -1082h-244l-142 688l-137 -688h-244z" />
<glyph unicode="x" d="M89 0l376 551l-362 531h299l234 -338l238 338h299l-363 -531l376 -551h-300l-249 354l-247 -354h-301z" />
<glyph unicode="y" d="M52 1082h304l246 -628l32 -116l288 744h307l-549 -1244q-18 -41 -46.5 -89t-71.5 -89t-104.5 -69t-145.5 -28q-20 0 -37 1.5t-33 4t-31.5 6t-33.5 8.5l34 212q17 0 43.5 -1.5t42.5 -1.5q33 0 58.5 20t43.5 44t29 44t15 20l67 126z" />
<glyph unicode="z" d="M118 0v172l606 684h-592v226h978v-167l-612 -692h637v-223h-1017z" />
<glyph unicode="{" d="M309 518v200q127 0 189 58t62 193v163q0 52 8.5 107t27.5 107t48.5 97.5t72 79.5t98 54t125.5 20l34 -157q-61 2 -94 -25.5t-48 -72.5t-17.5 -100.5t-2.5 -109.5v-163q0 -119 -58.5 -211t-181.5 -140q124 -48 182 -139t58 -210v-163q0 -54 6.5 -109.5t24.5 -100.5 t49.5 -72.5t81.5 -25.5l-34 -158q-66 0 -120 20t-96.5 54t-73 80t-51 98t-30 106.5t-9.5 107.5v163q0 133 -62 191t-189 58z" />
<glyph unicode="|" d="M533 -410v1866h174v-1866h-174z" />
<glyph unicode="}" d="M332 -202q49 -2 80.5 25.5t49.5 72.5t25 100.5t7 109.5v163q0 58 13.5 110t41.5 97t70.5 80.5t101.5 60.5q-117 50 -172 143t-55 209v163q0 54 -2.5 109.5t-17.5 100.5t-48 72.5t-94 25.5l34 157q70 0 125.5 -20t97.5 -54t72 -79.5t49 -97.5t27.5 -107t8.5 -107v-163 q0 -135 61.5 -193t189.5 -58v-200q-128 0 -189.5 -58t-61.5 -191v-163q0 -52 -10 -107t-30 -107t-51 -98t-73 -80t-96 -54t-120 -20z" />
<glyph unicode="~" d="M26 457q0 81 22 148.5t62.5 116t97 75.5t124.5 27q87 0 160.5 -34t147.5 -99q49 -42 93.5 -63t89.5 -21q27 0 51 14t42 37t29 52.5t11 60.5l188 -19q0 -81 -22.5 -150t-63 -118.5t-97.5 -77.5t-125 -28q-44 0 -82.5 8t-75.5 24.5t-73 41.5t-74 60q-49 40 -94 62t-92 22 q-27 0 -52 -13.5t-44.5 -36t-31 -51.5t-11.5 -60z" />
<glyph unicode="&#xa0;" />
<glyph unicode="&#xa1;" d="M482 947q0 33 11 61.5t32 49.5t51 33t68 12q37 0 67 -12t51.5 -33t33 -49.5t11.5 -61.5q0 -32 -11.5 -60t-33 -48t-51.5 -31.5t-67 -11.5q-38 0 -68 11.5t-51 31.5t-32 48t-11 60zM497 -380l17 945h253l16 -945h-286z" />
<glyph unicode="&#xa2;" d="M142 525v30q0 101 25.5 191t75.5 161t125 119.5t174 66.5v225h200v-223q81 -13 149 -47.5t116.5 -88t75 -123.5t24.5 -154h-262q2 40 -12 76t-41 62t-65 41.5t-83 15.5q-66 0 -109 -27t-68.5 -72t-36 -103t-10.5 -120v-30q0 -63 10 -121.5t35.5 -103t69 -71.5t110.5 -27 q41 0 78 12t65 34t43.5 53t13.5 69h262q2 -74 -26 -138t-77.5 -114.5t-117 -84t-144.5 -46.5v-232h-200v233q-99 18 -174 66t-125 119t-75.5 161t-25.5 191z" />
<glyph unicode="&#xa3;" d="M115 585v221h155l-7 234q0 103 33 184.5t93 137t143.5 85t183.5 29.5q107 0 190 -29.5t139.5 -83.5t86 -130t29.5 -169h-269q0 51 -14.5 86.5t-39.5 57.5t-57.5 31.5t-68.5 9.5t-67 -13.5t-53.5 -39.5t-35.5 -65.5t-13 -90.5l9 -234h310v-221h-302l6 -154 q0 -62 -14.5 -113t-48.5 -92h670v-226h-1055v226h89q24 6 38.5 25.5t23 46.5t11 58.5t2.5 61.5l-5 167h-162z" />
<glyph unicode="&#xa4;" d="M83 118l108 110q-35 60 -54 131t-19 149q0 83 21.5 157t59.5 136l-116 119l141 144l114 -117q60 42 129.5 64.5t146.5 22.5t147 -23t130 -65l116 119l142 -145l-120 -123q38 -62 58.5 -135t20.5 -154q0 -78 -18.5 -147.5t-52.5 -129.5l112 -113l-142 -145l-103 105 q-61 -48 -135 -73t-155 -25t-154.5 25t-135.5 71l-100 -102zM304 508q0 -72 24 -134t66 -107.5t98.5 -72t121.5 -26.5q64 0 120.5 26.5t98.5 72t66 107.5t24 134t-24 133.5t-66 106.5t-98.5 71t-120.5 26q-65 0 -121.5 -26t-98.5 -71t-66 -106.5t-24 -133.5z" />
<glyph unicode="&#xa5;" d="M21 1456h310l292 -619l292 619h309l-383 -714h250v-166h-331v-124h331v-165h-331v-287h-281v287h-343v165h343v124h-343v166h269z" />
<glyph unicode="&#xa6;" d="M488 -270v795h253v-795h-253zM488 698v758h253v-758h-253z" />
<glyph unicode="&#xa7;" d="M86 -38l278 1q0 -59 23 -96.5t60.5 -59.5t85 -30.5t95.5 -8.5q115 0 175.5 40t60.5 107q0 33 -14 59t-48.5 48.5t-92 44t-144.5 46.5q-112 30 -200 65.5t-149.5 84.5t-94 115t-32.5 157q0 92 42.5 160.5t120.5 112.5q-66 51 -100.5 119.5t-34.5 168.5q0 86 36.5 156.5 t104 120t163 76.5t212.5 27q120 0 216 -28t162.5 -82.5t102.5 -134.5t36 -183h-279q0 43 -15 80t-45 64.5t-74.5 43.5t-103.5 16q-62 0 -107 -12.5t-74 -33.5t-42.5 -49t-13.5 -59q0 -38 12.5 -65t45.5 -49.5t90.5 -42.5t147.5 -44q114 -30 203 -65.5t150 -84.5t92.5 -115 t31.5 -157q0 -94 -42 -161.5t-120 -110.5q66 -50 100 -118.5t34 -168.5q0 -90 -36.5 -159.5t-103.5 -117t-161.5 -72t-211.5 -24.5q-101 0 -198.5 20.5t-174 69t-123 129t-46.5 200.5zM366 561q0 -40 12.5 -68.5t45.5 -52.5t90.5 -45.5t147.5 -48.5q39 -11 75 -21.5 t70 -22.5q43 23 66 61t23 86q0 36 -14.5 64t-49.5 53t-93 48t-145 49q-78 21 -144 45q-44 -21 -64 -59.5t-20 -87.5z" />
<glyph unicode="&#xa8;" d="M265 1365q0 26 10 49t28 40t43 26.5t55 9.5t55 -9.5t43 -26.5t28 -40t10 -49t-10 -49t-28 -39.5t-43 -26t-55 -9.5t-55 9.5t-43 26t-28 39.5t-10 49zM745 1365q0 26 10 49t28 39.5t43 26t55 9.5t55 -9.5t43 -26t28 -39.5t10 -49q0 -27 -10 -50t-28 -40t-43 -26.5 t-55 -9.5t-55 9.5t-43 26.5t-28 40t-10 50z" />
<glyph unicode="&#xa9;" d="M89 542q0 118 42 220.5t114.5 178t169.5 118.5t207 43t207 -43t169 -118.5t114 -178t42 -220.5q0 -119 -42 -221.5t-114 -178.5t-169 -119t-207 -43t-207 43t-169.5 119t-114.5 178.5t-42 221.5zM180 542q0 -99 34.5 -185t94.5 -149.5t140.5 -99.5t172.5 -36q91 0 171 36 t140 99.5t94.5 149.5t34.5 185t-34.5 184t-94.5 148t-140 98.5t-171 35.5q-92 0 -172.5 -35.5t-140.5 -98.5t-94.5 -148t-34.5 -184zM350 496v90q0 64 18 117.5t52 92t82.5 60t108.5 21.5q117 0 184.5 -59.5t67.5 -177.5h-117q0 72 -34 103.5t-101 31.5q-36 0 -63 -14 t-45.5 -39t-27.5 -59.5t-9 -75.5v-91q0 -42 9 -76.5t27.5 -59t45.5 -38.5t63 -14q67 0 100.5 30t33.5 104h117q0 -119 -67.5 -177t-183.5 -58q-60 0 -108.5 21t-82.5 59t-52 91t-18 118z" />
<glyph unicode="&#xaa;" d="M273 919q0 111 83.5 171t247.5 60h137v51q0 62 -28.5 94.5t-87.5 32.5q-65 0 -101.5 -25.5t-36.5 -73.5l-173 14q0 51 22 93.5t63 73.5t98 48.5t128 17.5q65 0 118.5 -17.5t92 -52t59.5 -86t21 -120.5v-314q0 -49 6 -93t20 -88h-177q-15 43 -21 94q-14 -21 -34.5 -40.5 t-48 -34.5t-62.5 -24t-77 -9q-60 0 -106.5 16t-78 46t-48 72t-16.5 94zM448 923q0 -42 28.5 -65t88.5 -23q26 0 54 8.5t52.5 22t43 30.5t26.5 34v103h-136q-39 0 -68 -9t-49 -24t-30 -35t-10 -42z" />
<glyph unicode="&#xab;" d="M187 483v19l282 390h181l-242 -400l242 -399h-181zM566 483v19l282 390h181l-242 -400l242 -399h-181z" />
<glyph unicode="&#xac;" d="M185 634v171h835v-431h-200v260h-635z" />
<glyph unicode="&#xad;" d="M282 530v225h833v-225h-833z" />
<glyph unicode="&#xae;" d="M88 541q0 119 42 221.5t114 178t169 118.5t207 43t207 -43t169 -118.5t114 -178t42 -221.5t-42 -221.5t-114 -178.5t-169 -119t-207 -43t-207 43t-169 119t-114 178.5t-42 221.5zM179 541q0 -99 34.5 -184.5t94.5 -148.5t140.5 -99t171.5 -36t171.5 36t140.5 99 t94.5 148.5t34.5 184.5t-34.5 184.5t-94.5 148.5t-140.5 98.5t-171.5 35.5t-171.5 -35.5t-140.5 -98.5t-94.5 -148.5t-34.5 -184.5zM399 232v637h211q111 0 177.5 -48t66.5 -145q0 -56 -35 -95t-101 -62l146 -287h-116l-117 252h-119v-252h-113zM512 585h114q22 0 43 6 t37 17t25.5 27t9.5 37q0 55 -29 76t-102 21h-98v-184z" />
<glyph unicode="&#xaf;" d="M273 1292v164h730v-164h-730z" />
<glyph unicode="&#xb0;" d="M357 1202q0 56 21.5 105.5t58.5 87t86 59.5t105 22q54 0 102.5 -22t84.5 -59.5t57 -87t21 -105.5q0 -57 -21 -106t-57 -86t-84.5 -58t-102.5 -21q-56 0 -105 21t-86 58t-58.5 86t-21.5 106zM502 1202q0 -27 10 -49.5t27.5 -39t40 -26t48.5 -9.5q25 0 47.5 9t38.5 25.5 t25.5 39.5t9.5 50t-9.5 50.5t-25.5 41t-38.5 27t-47.5 9.5q-26 0 -48.5 -9.5t-40 -27t-27.5 -41t-10 -50.5z" />
<glyph unicode="&#xb1;" d="M147 701v232h340v351h245v-351h331v-232h-331v-370h-245v370h-340zM171 0v227h860v-227h-860z" />
<glyph unicode="&#xb2;" d="M298 1194q0 56 21 105.5t61 87t96 59t127 21.5q147 0 227.5 -64.5t80.5 -182.5q0 -44 -13.5 -80t-40.5 -71t-67 -71t-94 -79l-117 -93h355v-159h-618v134l287 259q57 50 81.5 92.5t24.5 66.5q0 39 -24.5 63t-72.5 24q-57 0 -85 -33.5t-28 -78.5h-201z" />
<glyph unicode="&#xb3;" d="M293 900h202q0 -34 32.5 -59.5t89.5 -25.5q61 0 88 27t27 63q0 53 -34 74t-95 21h-88v135h88q60 0 88 24.5t28 65.5q0 15 -6 29t-18.5 25.5t-33 18.5t-50.5 7q-44 0 -74 -17t-30 -47h-201q0 55 24.5 97t65.5 70.5t95 43t114 14.5q70 0 128 -14.5t99 -43t64 -71t23 -97.5 q0 -61 -36 -104t-99 -66q71 -19 110.5 -62.5t39.5 -120.5q0 -56 -25 -99t-69.5 -72.5t-104.5 -45t-130 -15.5q-56 0 -111.5 13t-100 42.5t-72.5 76t-28 113.5z" />
<glyph unicode="&#xb4;" d="M382 1199l187 279h306l-277 -279h-216z" />
<glyph unicode="&#xb5;" d="M172 -416v1498h278v-620q0 -80 13.5 -130t38 -78.5t58.5 -38.5t75 -10q81 0 131.5 28.5t77.5 79.5v769h279v-1082h-259l-6 72q-43 -45 -99.5 -69t-128.5 -24q-107 0 -180 48v-443h-278z" />
<glyph unicode="&#xb6;" d="M216 988q0 100 32 186t94.5 148.5t154.5 98t211 35.5h299v-1456h-216v520h-83q-119 0 -211 35t-154.5 97.5t-94.5 148.5t-32 187z" />
<glyph unicode="&#xb7;" d="M494 701q0 32 11 59.5t31.5 47.5t50 31.5t65.5 11.5t65.5 -11.5t50 -31.5t31.5 -47.5t11 -59.5t-11 -59t-31.5 -47t-50 -31.5t-65.5 -11.5t-65.5 11.5t-50 31.5t-31.5 47t-11 59z" />
<glyph unicode="&#xb8;" d="M438 -136l31 141h207l-11 -56q28 -5 55 -16.5t48 -32t34 -51t13 -73.5q0 -53 -22 -96t-65.5 -73.5t-107.5 -47.5t-149 -17l-7 160q51 0 85 19t34 64q0 42 -34.5 58t-110.5 21z" />
<glyph unicode="&#xb9;" d="M394 1169v156l371 120h19v-786h-199v553z" />
<glyph unicode="&#xba;" d="M266 1024v117q0 73 24 134.5t69 106t109 69.5t144 25q81 0 145 -25t109 -69.5t69 -106t24 -134.5v-117q0 -73 -24 -134.5t-68.5 -105.5t-108.5 -69t-144 -25t-144.5 25t-109.5 69t-69.5 105.5t-24.5 134.5zM441 1024q0 -41 10.5 -75t32 -59.5t54 -39.5t76.5 -14 q43 0 75 14t53 39.5t31.5 59.5t10.5 75v117q0 40 -10.5 74t-32 59t-54 39.5t-75.5 14.5t-75 -14.5t-53.5 -39.5t-32 -59t-10.5 -74v-117z" />
<glyph unicode="&#xbb;" d="M227 127l241 399l-241 400h181l283 -390v-19l-283 -390h-181zM604 127l241 399l-241 400h181l283 -390v-19l-283 -390h-181z" />
<glyph unicode="&#xbc;" d="M65 1210v140l334 108h17v-707h-179v498zM294 302l511 938l131 -67l-511 -938zM585 262l321 446v2h182v-419h82v-147h-82v-144h-182v144h-311zM758 291h148v193l-11 -17z" />
<glyph unicode="&#xbd;" d="M24 1211v140l334 108h17v-707h-179v498zM225 302l511 938l131 -67l-511 -938zM634 474q0 51 19 95.5t55 78t86.5 53t114.5 19.5q132 0 204.5 -58t72.5 -164q0 -40 -12 -72.5t-36.5 -64t-60.5 -63.5t-84 -71l-106 -84h320v-143h-556v121l258 233q51 45 73 83t22 60 q0 35 -22 56.5t-65 21.5q-51 0 -76.5 -30t-25.5 -71h-181z" />
<glyph unicode="&#xbe;" d="M33 955h182q0 -31 29.5 -54t80.5 -23q55 0 79 24.5t24 56.5q0 48 -30.5 67t-85.5 19h-79v121h79q54 0 79.5 22t25.5 59q0 14 -5.5 26.5t-17 23t-30 16.5t-45.5 6q-39 0 -66 -15t-27 -42h-181q0 49 22 87t59 63.5t85.5 38.5t102.5 13q63 0 115 -13t89 -38.5t58 -64 t21 -87.5q0 -55 -32.5 -94t-89.5 -59q64 -17 99.5 -56.5t35.5 -108.5q0 -50 -22.5 -89t-62.5 -65.5t-94 -40.5t-117 -14q-50 0 -100 12t-90 38.5t-65.5 68t-25.5 102.5zM378 302l511 938l131 -67l-511 -938zM633 262l321 446v2h182v-419h82v-147h-82v-144h-182v144h-311z M806 291h148v193l-11 -17z" />
<glyph unicode="&#xbf;" d="M202 -2q0 70 23 129t60.5 110.5t84.5 97.5t94 90q31 29 46.5 51t22.5 45t7.5 50.5t1.5 67.5h249q0 -68 -2.5 -116.5t-14.5 -86t-37.5 -69.5t-73.5 -68q-32 -33 -64.5 -68.5t-58.5 -73t-42.5 -77t-16.5 -81.5q0 -83 43 -123.5t118 -40.5q35 0 66.5 9.5t55.5 29.5t38.5 52 t15.5 77h279q-2 -101 -37 -175.5t-95 -123.5t-142 -73t-176 -24q-105 0 -187.5 25.5t-139.5 75t-87.5 122.5t-30.5 168zM538 942q0 28 6.5 52.5t21.5 42.5t40.5 28.5t63.5 10.5t64 -10.5t41.5 -28.5t22.5 -42.5t7 -52.5q0 -26 -7 -48.5t-22.5 -39.5t-41.5 -27t-64 -10 t-63.5 10t-40.5 27t-21.5 39.5t-6.5 48.5z" />
<glyph unicode="&#xc0;" d="M28 0l477 1456h255l468 -1456h-296l-85 304h-437l-86 -304h-296zM263 1826h306l177 -279h-219zM479 543h302l-149 536z" />
<glyph unicode="&#xc1;" d="M28 0l477 1456h255l468 -1456h-296l-85 304h-437l-86 -304h-296zM479 543h302l-149 536zM516 1544l187 279h306l-277 -279h-216z" />
<glyph unicode="&#xc2;" d="M28 0l477 1456h255l468 -1456h-296l-85 304h-437l-86 -304h-296zM263 1594v30l290 241h161l294 -243v-28h-221l-154 127l-153 -127h-217zM479 543h302l-149 536z" />
<glyph unicode="&#xc3;" d="M28 0l477 1456h255l468 -1456h-296l-85 304h-437l-86 -304h-296zM269 1636q0 44 15.5 88t43.5 79t67.5 57t88.5 22q40 0 75 -13.5t68.5 -30t67.5 -30t72 -13.5q36 0 63 25.5t27 71.5l140 -31q0 -45 -15.5 -89t-44 -78.5t-68 -55.5t-88.5 -21q-48 0 -83.5 13.5t-67 30 t-62.5 30t-70 13.5q-36 0 -62.5 -26t-26.5 -72zM479 543h302l-149 536z" />
<glyph unicode="&#xc4;" d="M28 0l477 1456h255l468 -1456h-296l-85 304h-437l-86 -304h-296zM252 1714q0 26 10 49t28 40t43 26.5t55 9.5t55 -9.5t43 -26.5t28 -40t10 -49t-10 -49t-28 -39.5t-43 -26t-55 -9.5t-55 9.5t-43 26t-28 39.5t-10 49zM479 543h302l-149 536zM732 1714q0 26 10 49t28 39.5 t43 26t55 9.5t55 -9.5t43 -26t28 -39.5t10 -49q0 -27 -10 -50t-28 -40t-43 -26.5t-55 -9.5t-55 9.5t-43 26.5t-28 40t-10 50z" />
<glyph unicode="&#xc5;" d="M28 0l477 1456h255l468 -1456h-296l-85 304h-437l-86 -304h-296zM421 1732q0 42 16.5 78t45.5 62t68 41t83 15t82 -15t66 -41t44 -62t16 -78t-16 -77.5t-44 -61t-66 -39.5t-82 -14t-83 14t-68 39.5t-45.5 61t-16.5 77.5zM479 543h302l-149 536zM535 1732q0 -44 28.5 -71 t70.5 -27t68.5 27t26.5 71q0 45 -26.5 72.5t-68.5 27.5t-70.5 -27.5t-28.5 -72.5z" />
<glyph unicode="&#xc6;" d="M48 0l479 1456h629v-228h-248v-366h217v-227h-217v-409h269v-226h-536v334h-217l-94 -334h-282zM491 574h150v532z" />
<glyph unicode="&#xc7;" d="M79 629v196q0 145 38 265t108 206t169.5 133.5t223.5 47.5q120 0 213.5 -34t159.5 -97t104 -154t48 -205h-280q-4 65 -19.5 114t-45 81.5t-74 49t-106.5 16.5q-65 0 -113 -28t-79.5 -82t-46.5 -132.5t-15 -178.5v-198q0 -215 60.5 -318t191.5 -103q110 0 174 58.5 t71 189.5h281q-7 -110 -47.5 -198t-108.5 -150t-162 -95.5t-208 -33.5q-129 0 -229 47.5t-168 133t-104 205.5t-36 264zM489 -131l31 141h207l-11 -56q28 -5 55 -16.5t48 -32t34 -51t13 -73.5q0 -53 -22 -96t-65.5 -73.5t-107.5 -47.5t-149 -17l-7 160q51 0 85 19t34 64 q0 42 -34.5 58t-110.5 21z" />
<glyph unicode="&#xc8;" d="M147 0v1456h978v-229h-696v-367h598v-222h-598v-411h699v-227h-981zM272 1817h306l177 -279h-219z" />
<glyph unicode="&#xc9;" d="M147 0v1456h978v-229h-696v-367h598v-222h-598v-411h699v-227h-981zM525 1535l187 279h306l-277 -279h-216z" />
<glyph unicode="&#xca;" d="M147 0v1456h978v-229h-696v-367h598v-222h-598v-411h699v-227h-981zM272 1585v30l290 241h161l294 -243v-28h-221l-154 127l-153 -127h-217z" />
<glyph unicode="&#xcb;" d="M147 0v1456h978v-229h-696v-367h598v-222h-598v-411h699v-227h-981zM261 1705q0 26 10 49t28 40t43 26.5t55 9.5t55 -9.5t43 -26.5t28 -40t10 -49t-10 -49t-28 -39.5t-43 -26t-55 -9.5t-55 9.5t-43 26t-28 39.5t-10 49zM741 1705q0 26 10 49t28 39.5t43 26t55 9.5 t55 -9.5t43 -26t28 -39.5t10 -49q0 -27 -10 -50t-28 -40t-43 -26.5t-55 -9.5t-55 9.5t-43 26.5t-28 40t-10 50z" />
<glyph unicode="&#xcc;" d="M193 0v226h277v1003h-277v227h842v-227h-284v-1003h284v-226h-842zM230 1826h306l177 -279h-219z" />
<glyph unicode="&#xcd;" d="M193 0v226h277v1003h-277v227h842v-227h-284v-1003h284v-226h-842zM483 1544l187 279h306l-277 -279h-216z" />
<glyph unicode="&#xce;" d="M193 0v226h277v1003h-277v227h842v-227h-284v-1003h284v-226h-842zM230 1594v30l290 241h161l294 -243v-28h-221l-154 127l-153 -127h-217z" />
<glyph unicode="&#xcf;" d="M193 0v226h277v1003h-277v227h842v-227h-284v-1003h284v-226h-842zM219 1714q0 26 10 49t28 40t43 26.5t55 9.5t55 -9.5t43 -26.5t28 -40t10 -49t-10 -49t-28 -39.5t-43 -26t-55 -9.5t-55 9.5t-43 26t-28 39.5t-10 49zM699 1714q0 26 10 49t28 39.5t43 26t55 9.5t55 -9.5 t43 -26t28 -39.5t10 -49q0 -27 -10 -50t-28 -40t-43 -26.5t-55 -9.5t-55 9.5t-43 26.5t-28 40t-10 50z" />
<glyph unicode="&#xd0;" horiz-adv-x="1259" d="M-27 643v180h182v633h377q145 0 262.5 -49.5t201 -138t129 -211.5t45.5 -270v-120q0 -147 -45.5 -269.5t-127.5 -211t-197 -137.5t-254 -49h-391v643h-182zM438 226h108q79 0 141.5 30t106 87t66.5 138.5t23 185.5v122q0 98 -22.5 178.5t-67 138.5t-110 90t-151.5 32h-94 v-405h227v-180h-227v-417z" />
<glyph unicode="&#xd1;" d="M123 0v1456h283l402 -935l1 935h282v-1456h-280l-405 939v-939h-283zM249 1636q0 44 15.5 88t43.5 79t67.5 57t88.5 22q40 0 75 -13.5t68.5 -30t67.5 -30t72 -13.5q36 0 63 25.5t27 71.5l140 -31q0 -45 -15.5 -89t-44 -78.5t-68 -55.5t-88.5 -21q-48 0 -83.5 13.5t-67 30 t-62.5 30t-70 13.5q-36 0 -62.5 -26t-26.5 -72z" />
<glyph unicode="&#xd2;" d="M80 621v212q0 140 35 258t102 203.5t164.5 133.5t223.5 48q127 0 227.5 -48t170.5 -133.5t107 -203.5t37 -258v-212q0 -140 -37 -258t-107 -203t-170.5 -132.5t-226.5 -47.5t-224 47.5t-165 133t-102 203t-35 257.5zM245 1847h306l177 -279h-219zM365 621q0 -88 12 -163 t40 -130t74 -86t115 -31q68 0 116.5 31t79 85.5t45.5 129.5t15 164v214q0 89 -14.5 164t-45.5 129t-79.5 84.5t-117.5 30.5q-68 0 -114 -30.5t-74 -84.5t-40 -129t-12 -164v-214z" />
<glyph unicode="&#xd3;" d="M80 621v212q0 140 35 258t102 203.5t164.5 133.5t223.5 48q127 0 227.5 -48t170.5 -133.5t107 -203.5t37 -258v-212q0 -140 -37 -258t-107 -203t-170.5 -132.5t-226.5 -47.5t-224 47.5t-165 133t-102 203t-35 257.5zM365 621q0 -88 12 -163t40 -130t74 -86t115 -31 q68 0 116.5 31t79 85.5t45.5 129.5t15 164v214q0 89 -14.5 164t-45.5 129t-79.5 84.5t-117.5 30.5q-68 0 -114 -30.5t-74 -84.5t-40 -129t-12 -164v-214zM498 1565l187 279h306l-277 -279h-216z" />
<glyph unicode="&#xd4;" d="M80 621v212q0 140 35 258t102 203.5t164.5 133.5t223.5 48q127 0 227.5 -48t170.5 -133.5t107 -203.5t37 -258v-212q0 -140 -37 -258t-107 -203t-170.5 -132.5t-226.5 -47.5t-224 47.5t-165 133t-102 203t-35 257.5zM245 1615v30l290 241h161l294 -243v-28h-221l-154 127 l-153 -127h-217zM365 621q0 -88 12 -163t40 -130t74 -86t115 -31q68 0 116.5 31t79 85.5t45.5 129.5t15 164v214q0 89 -14.5 164t-45.5 129t-79.5 84.5t-117.5 30.5q-68 0 -114 -30.5t-74 -84.5t-40 -129t-12 -164v-214z" />
<glyph unicode="&#xd5;" d="M80 621v212q0 140 35 258t102 203.5t164.5 133.5t223.5 48q127 0 227.5 -48t170.5 -133.5t107 -203.5t37 -258v-212q0 -140 -37 -258t-107 -203t-170.5 -132.5t-226.5 -47.5t-224 47.5t-165 133t-102 203t-35 257.5zM251 1657q0 44 15.5 88t43.5 79t67.5 57t88.5 22 q40 0 75 -13.5t68.5 -30t67.5 -30t72 -13.5q36 0 63 25.5t27 71.5l140 -31q0 -45 -15.5 -89t-44 -78.5t-68 -55.5t-88.5 -21q-48 0 -83.5 13.5t-67 30t-62.5 30t-70 13.5q-36 0 -62.5 -26t-26.5 -72zM365 621q0 -88 12 -163t40 -130t74 -86t115 -31q68 0 116.5 31t79 85.5 t45.5 129.5t15 164v214q0 89 -14.5 164t-45.5 129t-79.5 84.5t-117.5 30.5q-68 0 -114 -30.5t-74 -84.5t-40 -129t-12 -164v-214z" />
<glyph unicode="&#xd6;" d="M80 621v212q0 140 35 258t102 203.5t164.5 133.5t223.5 48q127 0 227.5 -48t170.5 -133.5t107 -203.5t37 -258v-212q0 -140 -37 -258t-107 -203t-170.5 -132.5t-226.5 -47.5t-224 47.5t-165 133t-102 203t-35 257.5zM234 1735q0 26 10 49t28 40t43 26.5t55 9.5t55 -9.5 t43 -26.5t28 -40t10 -49t-10 -49t-28 -39.5t-43 -26t-55 -9.5t-55 9.5t-43 26t-28 39.5t-10 49zM365 621q0 -88 12 -163t40 -130t74 -86t115 -31q68 0 116.5 31t79 85.5t45.5 129.5t15 164v214q0 89 -14.5 164t-45.5 129t-79.5 84.5t-117.5 30.5q-68 0 -114 -30.5t-74 -84.5 t-40 -129t-12 -164v-214zM714 1735q0 26 10 49t28 39.5t43 26t55 9.5t55 -9.5t43 -26t28 -39.5t10 -49q0 -27 -10 -50t-28 -40t-43 -26.5t-55 -9.5t-55 9.5t-43 26.5t-28 40t-10 50z" />
<glyph unicode="&#xd7;" d="M157 371l309 315l-309 315l165 164l307 -313l307 313l165 -164l-309 -315l309 -315l-165 -164l-307 313l-307 -313z" />
<glyph unicode="&#xd8;" d="M48 -95l157 278q-60 85 -90 195.5t-30 242.5v212q0 140 35 258t102 203.5t164.5 133.5t223.5 48q81 0 151.5 -20t129.5 -58l68 120h184l-130 -230q68 -86 103.5 -201.5t35.5 -253.5v-212q0 -140 -37 -258t-107 -203t-170.5 -132.5t-226.5 -47.5q-86 0 -158 21.5 t-131 63.5l-91 -160h-183zM370 621q0 -35 2 -68t6 -64l390 691q-30 30 -69 46.5t-89 16.5q-68 0 -114 -30.5t-74 -84.5t-40 -129t-12 -164v-214zM447 287q29 -36 69 -56t95 -20q68 0 116.5 31t79 85.5t45.5 129.5t15 164v214q-1 45 -4.5 87t-11.5 80z" />
<glyph unicode="&#xd9;" d="M126 491l1 965h281l1 -965q1 -141 51.5 -213t147.5 -72q103 0 157.5 72t55.5 213l1 965h279l1 -965q0 -122 -33.5 -217t-97 -160.5t-155 -99.5t-208.5 -34q-110 0 -198.5 34t-151.5 99t-97.5 160.5t-34.5 217.5zM253 1823h306l177 -279h-219z" />
<glyph unicode="&#xda;" d="M126 491l1 965h281l1 -965q1 -141 51.5 -213t147.5 -72q103 0 157.5 72t55.5 213l1 965h279l1 -965q0 -122 -33.5 -217t-97 -160.5t-155 -99.5t-208.5 -34q-110 0 -198.5 34t-151.5 99t-97.5 160.5t-34.5 217.5zM506 1541l187 279h306l-277 -279h-216z" />
<glyph unicode="&#xdb;" d="M126 491l1 965h281l1 -965q1 -141 51.5 -213t147.5 -72q103 0 157.5 72t55.5 213l1 965h279l1 -965q0 -122 -33.5 -217t-97 -160.5t-155 -99.5t-208.5 -34q-110 0 -198.5 34t-151.5 99t-97.5 160.5t-34.5 217.5zM253 1591v30l290 241h161l294 -243v-28h-221l-154 127 l-153 -127h-217z" />
<glyph unicode="&#xdc;" d="M126 491l1 965h281l1 -965q1 -141 51.5 -213t147.5 -72q103 0 157.5 72t55.5 213l1 965h279l1 -965q0 -122 -33.5 -217t-97 -160.5t-155 -99.5t-208.5 -34q-110 0 -198.5 34t-151.5 99t-97.5 160.5t-34.5 217.5zM242 1711q0 26 10 49t28 40t43 26.5t55 9.5t55 -9.5 t43 -26.5t28 -40t10 -49t-10 -49t-28 -39.5t-43 -26t-55 -9.5t-55 9.5t-43 26t-28 39.5t-10 49zM722 1711q0 26 10 49t28 39.5t43 26t55 9.5t55 -9.5t43 -26t28 -39.5t10 -49q0 -27 -10 -50t-28 -40t-43 -26.5t-55 -9.5t-55 9.5t-43 26.5t-28 40t-10 50z" />
<glyph unicode="&#xdd;" d="M33 1456h308l287 -671l287 671h309l-458 -952l-1 -504h-280l-1 516zM510 1544l187 279h306l-277 -279h-216z" />
<glyph unicode="&#xde;" d="M136 0v1456h279v-271h227q129 0 228 -33.5t166.5 -92.5t102.5 -141.5t35 -179.5q0 -98 -35 -180.5t-102.5 -142t-166.5 -93t-228 -33.5h-227v-289h-279zM415 513h227q68 0 116 18.5t78.5 49.5t44.5 71.5t14 83.5t-14 84t-44.5 72t-78.5 50t-116 19h-227v-448z" />
<glyph unicode="&#xdf;" d="M162 0v1076q0 118 34.5 209t96 152.5t147 93t187.5 31.5q79 0 151 -22.5t126.5 -68.5t87 -114.5t32.5 -160.5q0 -50 -8 -86t-20.5 -63.5t-26.5 -50t-26.5 -46.5t-20.5 -52t-8 -66q0 -35 20 -67t49.5 -64.5t64 -68t64 -77t49.5 -92t20 -113.5q0 -89 -26.5 -158.5 t-77.5 -116.5t-125.5 -71.5t-169.5 -24.5q-39 0 -80 4t-79 11.5t-70 18t-53 24.5l54 221q16 -9 39 -19t51.5 -18t61.5 -13.5t68 -5.5q61 0 95 38.5t34 103.5q0 41 -20 74.5t-49.5 65t-64 64t-64 71.5t-49.5 88t-20 114q0 44 8.5 77t21 60t27.5 50.5t27.5 49t21 54.5t8.5 68 q0 37 -12.5 66.5t-32.5 50t-45 31.5t-50 11q-35 0 -66.5 -15.5t-54.5 -48t-36.5 -83t-13.5 -120.5v-1072h-277z" />
<glyph unicode="&#xe0;" d="M115 303q0 171 127.5 264.5t380.5 93.5h155v64q0 78 -51 123.5t-147 45.5q-85 0 -124 -36.5t-39 -97.5h-278q0 69 30.5 131t89 109t143 74.5t193.5 27.5q98 0 182.5 -24t146.5 -71t97 -118.5t35 -165.5v-464q0 -87 11 -144t32 -98v-17h-282q-10 20 -17 46t-12 55 q-23 -25 -53 -47t-66.5 -38.5t-80.5 -26t-95 -9.5q-83 0 -152.5 24t-119.5 67t-78 102.5t-28 129.5zM226 1504h306l177 -279h-219zM393 325q0 -56 39.5 -93t119.5 -37q42 0 78 10t65 26t50 36.5t33 41.5v186h-142q-65 0 -111 -12.5t-75 -35t-43 -54t-14 -68.5z" />
<glyph unicode="&#xe1;" d="M115 303q0 171 127.5 264.5t380.5 93.5h155v64q0 78 -51 123.5t-147 45.5q-85 0 -124 -36.5t-39 -97.5h-278q0 69 30.5 131t89 109t143 74.5t193.5 27.5q98 0 182.5 -24t146.5 -71t97 -118.5t35 -165.5v-464q0 -87 11 -144t32 -98v-17h-282q-10 20 -17 46t-12 55 q-23 -25 -53 -47t-66.5 -38.5t-80.5 -26t-95 -9.5q-83 0 -152.5 24t-119.5 67t-78 102.5t-28 129.5zM393 325q0 -56 39.5 -93t119.5 -37q42 0 78 10t65 26t50 36.5t33 41.5v186h-142q-65 0 -111 -12.5t-75 -35t-43 -54t-14 -68.5zM479 1222l187 279h306l-277 -279h-216z" />
<glyph unicode="&#xe2;" d="M115 303q0 171 127.5 264.5t380.5 93.5h155v64q0 78 -51 123.5t-147 45.5q-85 0 -124 -36.5t-39 -97.5h-278q0 69 30.5 131t89 109t143 74.5t193.5 27.5q98 0 182.5 -24t146.5 -71t97 -118.5t35 -165.5v-464q0 -87 11 -144t32 -98v-17h-282q-10 20 -17 46t-12 55 q-23 -25 -53 -47t-66.5 -38.5t-80.5 -26t-95 -9.5q-83 0 -152.5 24t-119.5 67t-78 102.5t-28 129.5zM226 1272v30l290 241h161l294 -243v-28h-221l-154 127l-153 -127h-217zM393 325q0 -56 39.5 -93t119.5 -37q42 0 78 10t65 26t50 36.5t33 41.5v186h-142q-65 0 -111 -12.5 t-75 -35t-43 -54t-14 -68.5z" />
<glyph unicode="&#xe3;" d="M115 303q0 171 127.5 264.5t380.5 93.5h155v64q0 78 -51 123.5t-147 45.5q-85 0 -124 -36.5t-39 -97.5h-278q0 69 30.5 131t89 109t143 74.5t193.5 27.5q98 0 182.5 -24t146.5 -71t97 -118.5t35 -165.5v-464q0 -87 11 -144t32 -98v-17h-282q-10 20 -17 46t-12 55 q-23 -25 -53 -47t-66.5 -38.5t-80.5 -26t-95 -9.5q-83 0 -152.5 24t-119.5 67t-78 102.5t-28 129.5zM232 1314q0 44 15.5 88t43.5 79t67.5 57t88.5 22q40 0 75 -13.5t68.5 -30t67.5 -30t72 -13.5q36 0 63 25.5t27 71.5l140 -31q0 -45 -15.5 -89t-44 -78.5t-68 -55.5 t-88.5 -21q-48 0 -83.5 13.5t-67 30t-62.5 30t-70 13.5q-36 0 -62.5 -26t-26.5 -72zM393 325q0 -56 39.5 -93t119.5 -37q42 0 78 10t65 26t50 36.5t33 41.5v186h-142q-65 0 -111 -12.5t-75 -35t-43 -54t-14 -68.5z" />
<glyph unicode="&#xe4;" d="M115 303q0 171 127.5 264.5t380.5 93.5h155v64q0 78 -51 123.5t-147 45.5q-85 0 -124 -36.5t-39 -97.5h-278q0 69 30.5 131t89 109t143 74.5t193.5 27.5q98 0 182.5 -24t146.5 -71t97 -118.5t35 -165.5v-464q0 -87 11 -144t32 -98v-17h-282q-10 20 -17 46t-12 55 q-23 -25 -53 -47t-66.5 -38.5t-80.5 -26t-95 -9.5q-83 0 -152.5 24t-119.5 67t-78 102.5t-28 129.5zM215 1392q0 26 10 49t28 40t43 26.5t55 9.5t55 -9.5t43 -26.5t28 -40t10 -49t-10 -49t-28 -39.5t-43 -26t-55 -9.5t-55 9.5t-43 26t-28 39.5t-10 49zM393 325 q0 -56 39.5 -93t119.5 -37q42 0 78 10t65 26t50 36.5t33 41.5v186h-142q-65 0 -111 -12.5t-75 -35t-43 -54t-14 -68.5zM695 1392q0 26 10 49t28 39.5t43 26t55 9.5t55 -9.5t43 -26t28 -39.5t10 -49q0 -27 -10 -50t-28 -40t-43 -26.5t-55 -9.5t-55 9.5t-43 26.5t-28 40 t-10 50z" />
<glyph unicode="&#xe5;" d="M115 303q0 171 127.5 264.5t380.5 93.5h155v64q0 78 -51 123.5t-147 45.5q-85 0 -124 -36.5t-39 -97.5h-278q0 69 30.5 131t89 109t143 74.5t193.5 27.5q98 0 182.5 -24t146.5 -71t97 -118.5t35 -165.5v-464q0 -87 11 -144t32 -98v-17h-282q-10 20 -17 46t-12 55 q-23 -25 -53 -47t-66.5 -38.5t-80.5 -26t-95 -9.5q-83 0 -152.5 24t-119.5 67t-78 102.5t-28 129.5zM385 1410q0 42 16.5 78t45.5 62t68 41t83 15t82 -15t66 -41t44 -62t16 -78t-16 -77.5t-44 -61t-66 -39.5t-82 -14t-83 14t-68 39.5t-45.5 61t-16.5 77.5zM393 325 q0 -56 39.5 -93t119.5 -37q42 0 78 10t65 26t50 36.5t33 41.5v186h-142q-65 0 -111 -12.5t-75 -35t-43 -54t-14 -68.5zM499 1410q0 -44 28.5 -71t70.5 -27t68.5 27t26.5 71q0 45 -26.5 72.5t-68.5 27.5t-70.5 -27.5t-28.5 -72.5z" />
<glyph unicode="&#xe6;" d="M46 297q0 169 114 260t337 91h3v119q0 53 -18.5 81.5t-59.5 28.5q-47 0 -69.5 -23.5t-22.5 -77.5l-261 9q0 72 23.5 131t67.5 100t106.5 63.5t141.5 22.5q145 0 232 -75q42 36 98.5 56t128.5 19q74 0 134.5 -28t103 -80t66 -127t23.5 -168v-245h-451v-91q0 -36 9 -65.5 t30 -50.5t54 -32.5t81 -11.5q34 0 61 4.5t49.5 11t42.5 15.5t41 18l55 -192q-20 -16 -50.5 -30.5t-69 -25.5t-83.5 -17.5t-95 -6.5q-90 0 -157.5 31t-112.5 88q-18 -24 -41.5 -46t-53 -38t-64 -25.5t-75.5 -9.5q-77 0 -136 22.5t-99.5 63.5t-61.5 100t-21 131zM323 293 q0 -49 27.5 -78.5t83.5 -29.5q17 0 34 7t32 19v253h-1q-43 0 -75.5 -14t-55 -37.5t-34 -54.5t-11.5 -65zM743 643h195v112q0 57 -21.5 89.5t-69.5 32.5q-34 0 -54.5 -13t-31.5 -36t-14.5 -55t-3.5 -69v-61z" />
<glyph unicode="&#xe7;" d="M117 525v30q0 114 32 213.5t96 173.5t158.5 117t219.5 43q100 0 185 -30t146.5 -84.5t95.5 -132t32 -173.5h-262q2 40 -12 76t-41 62t-65 41.5t-83 15.5q-66 0 -109 -27t-68.5 -72t-36 -103t-10.5 -120v-30q0 -63 10 -121.5t35.5 -103t69 -71.5t110.5 -27q41 0 78 12 t65 34t43.5 53t13.5 69h262q2 -84 -34.5 -156t-99.5 -124t-146.5 -81.5t-176.5 -29.5q-126 0 -221 42.5t-158.5 116.5t-96 173.5t-32.5 213.5zM489 -131l31 141h207l-11 -56q28 -5 55 -16.5t48 -32t34 -51t13 -73.5q0 -53 -22 -96t-65.5 -73.5t-107.5 -47.5t-149 -17l-7 160 q51 0 85 19t34 64q0 42 -34.5 58t-110.5 21z" />
<glyph unicode="&#xe8;" d="M112 503v40q0 124 39 226.5t109 176.5t166 115t209 41q117 0 208.5 -38.5t155 -108.5t96.5 -168.5t33 -217.5v-118h-734q8 -55 32.5 -100.5t62.5 -78.5t87 -51t107 -18q41 0 81.5 8t77.5 23.5t69 38.5t56 54l139 -150q-26 -37 -67.5 -72.5t-98 -63t-125.5 -44.5t-149 -17 q-125 0 -227 41t-175 111.5t-112.5 166t-39.5 204.5zM231 1505h306l177 -279h-219zM399 643h456v22q-2 44 -17 83t-43 67.5t-68.5 45t-93.5 16.5q-47 0 -86 -16.5t-68.5 -47.5t-49.5 -74t-30 -96z" />
<glyph unicode="&#xe9;" d="M112 503v40q0 124 39 226.5t109 176.5t166 115t209 41q117 0 208.5 -38.5t155 -108.5t96.5 -168.5t33 -217.5v-118h-734q8 -55 32.5 -100.5t62.5 -78.5t87 -51t107 -18q41 0 81.5 8t77.5 23.5t69 38.5t56 54l139 -150q-26 -37 -67.5 -72.5t-98 -63t-125.5 -44.5t-149 -17 q-125 0 -227 41t-175 111.5t-112.5 166t-39.5 204.5zM399 643h456v22q-2 44 -17 83t-43 67.5t-68.5 45t-93.5 16.5q-47 0 -86 -16.5t-68.5 -47.5t-49.5 -74t-30 -96zM484 1223l187 279h306l-277 -279h-216z" />
<glyph unicode="&#xea;" d="M112 503v40q0 124 39 226.5t109 176.5t166 115t209 41q117 0 208.5 -38.5t155 -108.5t96.5 -168.5t33 -217.5v-118h-734q8 -55 32.5 -100.5t62.5 -78.5t87 -51t107 -18q41 0 81.5 8t77.5 23.5t69 38.5t56 54l139 -150q-26 -37 -67.5 -72.5t-98 -63t-125.5 -44.5t-149 -17 q-125 0 -227 41t-175 111.5t-112.5 166t-39.5 204.5zM231 1273v30l290 241h161l294 -243v-28h-221l-154 127l-153 -127h-217zM399 643h456v22q-2 44 -17 83t-43 67.5t-68.5 45t-93.5 16.5q-47 0 -86 -16.5t-68.5 -47.5t-49.5 -74t-30 -96z" />
<glyph unicode="&#xeb;" d="M112 503v40q0 124 39 226.5t109 176.5t166 115t209 41q117 0 208.5 -38.5t155 -108.5t96.5 -168.5t33 -217.5v-118h-734q8 -55 32.5 -100.5t62.5 -78.5t87 -51t107 -18q41 0 81.5 8t77.5 23.5t69 38.5t56 54l139 -150q-26 -37 -67.5 -72.5t-98 -63t-125.5 -44.5t-149 -17 q-125 0 -227 41t-175 111.5t-112.5 166t-39.5 204.5zM220 1393q0 26 10 49t28 40t43 26.5t55 9.5t55 -9.5t43 -26.5t28 -40t10 -49t-10 -49t-28 -39.5t-43 -26t-55 -9.5t-55 9.5t-43 26t-28 39.5t-10 49zM399 643h456v22q-2 44 -17 83t-43 67.5t-68.5 45t-93.5 16.5 q-47 0 -86 -16.5t-68.5 -47.5t-49.5 -74t-30 -96zM700 1393q0 26 10 49t28 39.5t43 26t55 9.5t55 -9.5t43 -26t28 -39.5t10 -49q0 -27 -10 -50t-28 -40t-43 -26.5t-55 -9.5t-55 9.5t-43 26.5t-28 40t-10 50z" />
<glyph unicode="&#xec;" d="M199 0v226h324v629h-324v227h605v-856h310v-226h-915zM297 1478h306l177 -279h-219z" />
<glyph unicode="&#xed;" d="M199 0v226h324v629h-324v227h605v-856h310v-226h-915zM550 1197l187 279h306l-277 -279h-216z" />
<glyph unicode="&#xee;" d="M199 0v226h324v629h-324v227h605v-856h310v-226h-915zM297 1246v30l290 241h161l294 -243v-28h-221l-154 127l-153 -127h-217z" />
<glyph unicode="&#xef;" d="M199 0v226h324v629h-324v227h605v-856h310v-226h-915zM285 1366q0 26 10 49t28 40t43 26.5t55 9.5t55 -9.5t43 -26.5t28 -40t10 -49t-10 -49t-28 -39.5t-43 -26t-55 -9.5t-55 9.5t-43 26t-28 39.5t-10 49zM765 1366q0 26 10 49t28 39.5t43 26t55 9.5t55 -9.5t43 -26 t28 -39.5t10 -49q0 -27 -10 -50t-28 -40t-43 -26.5t-55 -9.5t-55 9.5t-43 26.5t-28 40t-10 50z" />
<glyph unicode="&#xf0;" d="M38 468q0 112 34.5 204t98 157.5t154.5 101.5t205 36q75 0 142.5 -23t121.5 -65q-21 79 -55 142t-78 112l-242 -133l-78 112l211 117q-33 22 -68 39t-70 30l88 217q167 -42 297 -150l199 110l78 -113l-177 -98q95 -115 148.5 -270t53.5 -347v-68q0 -135 -41.5 -246 t-114.5 -189.5t-172.5 -121.5t-214.5 -43q-116 0 -212 38t-164.5 104.5t-106 155.5t-37.5 191zM316 468q0 -54 16.5 -102t48 -84.5t77 -58t104.5 -21.5q60 0 108.5 26.5t82 73t51.5 111t18 141.5v95v12q-16 19 -41.5 36t-60 30t-78.5 20.5t-98 7.5t-96 -24t-71.5 -63.5 t-45 -91.5t-15.5 -108z" />
<glyph unicode="&#xf1;" d="M141 0v1082h252l17 -150q58 81 141 125.5t184 44.5q82 0 150 -24t117.5 -76.5t77 -135t27.5 -200.5v-666h-278v662q0 64 -14.5 105.5t-41.5 65.5t-65 33.5t-86 9.5q-71 0 -121 -28.5t-81 -78.5v-769h-279zM243 1314q0 44 15.5 88t43.5 79t67.5 57t88.5 22q40 0 75 -13.5 t68.5 -30t67.5 -30t72 -13.5q36 0 63 25.5t27 71.5l140 -31q0 -45 -15.5 -89t-44 -78.5t-68 -55.5t-88.5 -21q-48 0 -83.5 13.5t-67 30t-62.5 30t-70 13.5q-36 0 -62.5 -26t-26.5 -72z" />
<glyph unicode="&#xf2;" d="M103 530v21q0 118 34 218.5t99.5 174.5t160 116t216.5 42t217 -42t160.5 -116t99.5 -174.5t34 -218.5v-21q0 -119 -34 -219.5t-99 -174.5t-160 -115.5t-216 -41.5q-122 0 -217.5 41.5t-161 115.5t-99.5 174.5t-34 219.5zM250 1504h306l177 -279h-219zM381 530 q0 -68 13 -127.5t41 -104t72.5 -70.5t107.5 -26q61 0 105 26t71.5 70.5t40.5 104t13 127.5v21q0 66 -13 125t-40.5 104t-71.5 71t-107 26q-62 0 -106 -26t-72 -71t-41 -104t-13 -125v-21z" />
<glyph unicode="&#xf3;" d="M103 530v21q0 118 34 218.5t99.5 174.5t160 116t216.5 42t217 -42t160.5 -116t99.5 -174.5t34 -218.5v-21q0 -119 -34 -219.5t-99 -174.5t-160 -115.5t-216 -41.5q-122 0 -217.5 41.5t-161 115.5t-99.5 174.5t-34 219.5zM381 530q0 -68 13 -127.5t41 -104t72.5 -70.5 t107.5 -26q61 0 105 26t71.5 70.5t40.5 104t13 127.5v21q0 66 -13 125t-40.5 104t-71.5 71t-107 26q-62 0 -106 -26t-72 -71t-41 -104t-13 -125v-21zM503 1222l187 279h306l-277 -279h-216z" />
<glyph unicode="&#xf4;" d="M103 530v21q0 118 34 218.5t99.5 174.5t160 116t216.5 42t217 -42t160.5 -116t99.5 -174.5t34 -218.5v-21q0 -119 -34 -219.5t-99 -174.5t-160 -115.5t-216 -41.5q-122 0 -217.5 41.5t-161 115.5t-99.5 174.5t-34 219.5zM250 1272v30l290 241h161l294 -243v-28h-221 l-154 127l-153 -127h-217zM381 530q0 -68 13 -127.5t41 -104t72.5 -70.5t107.5 -26q61 0 105 26t71.5 70.5t40.5 104t13 127.5v21q0 66 -13 125t-40.5 104t-71.5 71t-107 26q-62 0 -106 -26t-72 -71t-41 -104t-13 -125v-21z" />
<glyph unicode="&#xf5;" d="M103 530v21q0 118 34 218.5t99.5 174.5t160 116t216.5 42t217 -42t160.5 -116t99.5 -174.5t34 -218.5v-21q0 -119 -34 -219.5t-99 -174.5t-160 -115.5t-216 -41.5q-122 0 -217.5 41.5t-161 115.5t-99.5 174.5t-34 219.5zM256 1314q0 44 15.5 88t43.5 79t67.5 57t88.5 22 q40 0 75 -13.5t68.5 -30t67.5 -30t72 -13.5q36 0 63 25.5t27 71.5l140 -31q0 -45 -15.5 -89t-44 -78.5t-68 -55.5t-88.5 -21q-48 0 -83.5 13.5t-67 30t-62.5 30t-70 13.5q-36 0 -62.5 -26t-26.5 -72zM381 530q0 -68 13 -127.5t41 -104t72.5 -70.5t107.5 -26q61 0 105 26 t71.5 70.5t40.5 104t13 127.5v21q0 66 -13 125t-40.5 104t-71.5 71t-107 26q-62 0 -106 -26t-72 -71t-41 -104t-13 -125v-21z" />
<glyph unicode="&#xf6;" d="M103 530v21q0 118 34 218.5t99.5 174.5t160 116t216.5 42t217 -42t160.5 -116t99.5 -174.5t34 -218.5v-21q0 -119 -34 -219.5t-99 -174.5t-160 -115.5t-216 -41.5q-122 0 -217.5 41.5t-161 115.5t-99.5 174.5t-34 219.5zM239 1392q0 26 10 49t28 40t43 26.5t55 9.5 t55 -9.5t43 -26.5t28 -40t10 -49t-10 -49t-28 -39.5t-43 -26t-55 -9.5t-55 9.5t-43 26t-28 39.5t-10 49zM381 530q0 -68 13 -127.5t41 -104t72.5 -70.5t107.5 -26q61 0 105 26t71.5 70.5t40.5 104t13 127.5v21q0 66 -13 125t-40.5 104t-71.5 71t-107 26q-62 0 -106 -26 t-72 -71t-41 -104t-13 -125v-21zM719 1392q0 26 10 49t28 39.5t43 26t55 9.5t55 -9.5t43 -26t28 -39.5t10 -49q0 -27 -10 -50t-28 -40t-43 -26.5t-55 -9.5t-55 9.5t-43 26.5t-28 40t-10 50z" />
<glyph unicode="&#xf7;" d="M108 573v227h1024v-227h-1024zM463 278q0 30 10.5 56t30.5 45t48 30t63 11q71 0 112 -40.5t41 -101.5t-41 -101t-112 -40q-70 0 -111 40t-41 101zM465 1089q0 61 41 101t111 40q71 0 112 -40t41 -101t-41 -101t-112 -40q-70 0 -111 40t-41 101z" />
<glyph unicode="&#xf8;" d="M103 530v21q0 118 34 218.5t99.5 174.5t160 116t216.5 42q104 0 191 -32l71 145h157l-104 -213q96 -74 146 -190.5t50 -260.5v-21q0 -119 -34 -219.5t-99 -174.5t-160 -115.5t-216 -41.5q-94 0 -175 26l-71 -146h-157l102 208q-103 72 -157 192.5t-54 270.5zM381 530 q0 -66 11.5 -123.5t37.5 -101.5l271 555q-39 17 -88 17q-62 0 -106 -26t-72 -71t-41 -104t-13 -125v-21zM542 213q35 -11 73 -11q61 0 105 26t71.5 70.5t40.5 104t13 127.5v21q0 57 -9.5 108.5t-29.5 93.5z" />
<glyph unicode="&#xf9;" d="M150 442v640h278v-642q0 -66 9.5 -111t30.5 -72.5t55 -39.5t83 -12q83 0 135 31.5t79 86.5v759h279v-1082h-252l-16 152q-55 -81 -132.5 -127t-169.5 -46q-84 0 -154 26t-120 82.5t-77.5 144t-27.5 210.5zM252 1483h306l177 -279h-219z" />
<glyph unicode="&#xfa;" d="M150 442v640h278v-642q0 -66 9.5 -111t30.5 -72.5t55 -39.5t83 -12q83 0 135 31.5t79 86.5v759h279v-1082h-252l-16 152q-55 -81 -132.5 -127t-169.5 -46q-84 0 -154 26t-120 82.5t-77.5 144t-27.5 210.5zM505 1201l187 279h306l-277 -279h-216z" />
<glyph unicode="&#xfb;" d="M150 442v640h278v-642q0 -66 9.5 -111t30.5 -72.5t55 -39.5t83 -12q83 0 135 31.5t79 86.5v759h279v-1082h-252l-16 152q-55 -81 -132.5 -127t-169.5 -46q-84 0 -154 26t-120 82.5t-77.5 144t-27.5 210.5zM252 1251v30l290 241h161l294 -243v-28h-221l-154 127l-153 -127 h-217z" />
<glyph unicode="&#xfc;" d="M150 442v640h278v-642q0 -66 9.5 -111t30.5 -72.5t55 -39.5t83 -12q83 0 135 31.5t79 86.5v759h279v-1082h-252l-16 152q-55 -81 -132.5 -127t-169.5 -46q-84 0 -154 26t-120 82.5t-77.5 144t-27.5 210.5zM241 1371q0 26 10 49t28 40t43 26.5t55 9.5t55 -9.5t43 -26.5 t28 -40t10 -49t-10 -49t-28 -39.5t-43 -26t-55 -9.5t-55 9.5t-43 26t-28 39.5t-10 49zM721 1371q0 26 10 49t28 39.5t43 26t55 9.5t55 -9.5t43 -26t28 -39.5t10 -49q0 -27 -10 -50t-28 -40t-43 -26.5t-55 -9.5t-55 9.5t-43 26.5t-28 40t-10 50z" />
<glyph unicode="&#xfd;" d="M52 1082h304l246 -628l32 -116l288 744h307l-549 -1244q-18 -41 -46.5 -89t-71.5 -89t-104.5 -69t-145.5 -28q-20 0 -37 1.5t-33 4t-31.5 6t-33.5 8.5l34 212q17 0 43.5 -1.5t42.5 -1.5q33 0 58.5 20t43.5 44t29 44t15 20l67 126zM529 1201l187 279h306l-277 -279h-216z " />
<glyph unicode="&#xfe;" d="M145 -416v1959h278v-556q49 55 114.5 85t152.5 30q103 0 182 -39.5t132.5 -112t81 -174t27.5 -224.5v-21q0 -118 -27.5 -219t-81 -174.5t-132 -115.5t-180.5 -42q-88 0 -154 30t-115 85v-511h-278zM423 316q26 -52 73 -82.5t122 -30.5q59 0 100.5 26t67.5 71t37.5 104.5 t11.5 126.5v21q0 68 -12.5 127.5t-38.5 103t-68 68.5t-100 25q-73 0 -120 -28.5t-73 -81.5v-450z" />
<glyph unicode="&#xff;" d="M52 1082h304l246 -628l32 -116l288 744h307l-549 -1244q-18 -41 -46.5 -89t-71.5 -89t-104.5 -69t-145.5 -28q-20 0 -37 1.5t-33 4t-31.5 6t-33.5 8.5l34 212q17 0 43.5 -1.5t42.5 -1.5q33 0 58.5 20t43.5 44t29 44t15 20l67 126zM265 1371q0 26 10 49t28 40t43 26.5 t55 9.5t55 -9.5t43 -26.5t28 -40t10 -49t-10 -49t-28 -39.5t-43 -26t-55 -9.5t-55 9.5t-43 26t-28 39.5t-10 49zM745 1371q0 26 10 49t28 39.5t43 26t55 9.5t55 -9.5t43 -26t28 -39.5t10 -49q0 -27 -10 -50t-28 -40t-43 -26.5t-55 -9.5t-55 9.5t-43 26.5t-28 40t-10 50z" />
<glyph unicode="&#x152;" d="M71 496v464q0 132 32 229.5t89 161.5t135.5 95t171.5 31q71 0 139 -6.5t131 -14.5h410v-217h-347v-374h296v-217h-296v-416h358v-232h-421q-63 -8 -130 -14.5t-138 -6.5q-93 0 -172 31t-136.5 95t-89.5 161.5t-32 229.5zM312 496q0 -84 13 -139.5t37.5 -87.5t59.5 -45 t79 -13q46 0 91 3v1042q-23 2 -46.5 3t-46.5 1q-44 0 -78.5 -13.5t-58.5 -47.5t-37 -91.5t-13 -145.5v-466z" />
<glyph unicode="&#x153;" d="M38 440v201q0 108 24 193.5t70.5 145t114.5 91t155 31.5q71 0 128 -22.5t101 -64.5q41 43 95 65.5t121 21.5q80 0 143 -31t106.5 -87t66 -135.5t22.5 -176.5v-218h-420v-34q0 -105 40 -161t128 -56q26 0 46 3t37 8.5t32.5 13t32.5 16.5l60 -180q-37 -35 -96 -59.5 t-139 -24.5q-164 0 -265 95q-44 -47 -103 -71t-134 -24q-88 0 -156 31t-114.5 90t-71 144.5t-24.5 194.5zM299 440q0 -116 21.5 -176.5t83.5 -60.5q61 0 82.5 60t21.5 177v201q0 56 -5 100t-17 74t-32.5 46t-51.5 16q-30 0 -49.5 -16t-31.5 -46t-17 -74t-5 -100v-201z M765 647h163v85q0 67 -18.5 106t-62.5 39q-29 0 -45 -15.5t-24.5 -44.5t-10.5 -72t-2 -98z" />
<glyph unicode="&#x178;" d="M33 1456h308l287 -671l287 671h309l-458 -952l-1 -504h-280l-1 516zM246 1714q0 26 10 49t28 40t43 26.5t55 9.5t55 -9.5t43 -26.5t28 -40t10 -49t-10 -49t-28 -39.5t-43 -26t-55 -9.5t-55 9.5t-43 26t-28 39.5t-10 49zM726 1714q0 26 10 49t28 39.5t43 26t55 9.5 t55 -9.5t43 -26t28 -39.5t10 -49q0 -27 -10 -50t-28 -40t-43 -26.5t-55 -9.5t-55 9.5t-43 26.5t-28 40t-10 50z" />
<glyph unicode="&#x2c6;" d="M129 1245v30l290 241h161l294 -243v-28h-221l-154 127l-153 -127h-217z" />
<glyph unicode="&#x2dc;" d="M128 1286q0 44 15.5 88t43.5 79t67.5 57t88.5 22q40 0 75 -13.5t68.5 -30t67.5 -30t72 -13.5q36 0 63 25.5t27 71.5l140 -31q0 -45 -15.5 -89t-44 -78.5t-68 -55.5t-88.5 -21q-48 0 -83.5 13.5t-67 30t-62.5 30t-70 13.5q-36 0 -62.5 -26t-26.5 -72z" />
<glyph unicode="&#x2000;" horiz-adv-x="964" />
<glyph unicode="&#x2001;" horiz-adv-x="1928" />
<glyph unicode="&#x2002;" horiz-adv-x="964" />
<glyph unicode="&#x2003;" horiz-adv-x="1928" />
<glyph unicode="&#x2004;" horiz-adv-x="642" />
<glyph unicode="&#x2005;" horiz-adv-x="482" />
<glyph unicode="&#x2006;" horiz-adv-x="321" />
<glyph unicode="&#x2007;" horiz-adv-x="321" />
<glyph unicode="&#x2008;" horiz-adv-x="241" />
<glyph unicode="&#x2009;" horiz-adv-x="385" />
<glyph unicode="&#x200a;" horiz-adv-x="107" />
<glyph unicode="&#x2010;" d="M282 530v225h833v-225h-833z" />
<glyph unicode="&#x2011;" d="M282 530v225h833v-225h-833z" />
<glyph unicode="&#x2012;" d="M282 530v225h833v-225h-833z" />
<glyph unicode="&#x2013;" d="M61 601v227h1118v-227h-1118z" />
<glyph unicode="&#x2014;" d="M57 601v227h1118v-227h-1118z" />
<glyph unicode="&#x2018;" d="M491 1012v176q0 51 14 105.5t39 106.5t58 98t72 81l128 -79q-38 -65 -63 -139.5t-25 -171.5v-177h-223z" />
<glyph unicode="&#x2019;" d="M466 1075q38 65 62.5 140t24.5 172v173h223v-173q0 -51 -14 -105.5t-39 -106t-58 -98t-72 -81.5z" />
<glyph unicode="&#x201a;" d="M464 -246q38 66 60.5 139.5t22.5 170.5v205h233l-1 -204q0 -51 -14 -105t-38.5 -106t-58 -98t-71.5 -81z" />
<glyph unicode="&#x201c;" d="M326 1012v176q0 51 14 105.5t39 106.5t58 98t72 81l128 -79q-38 -65 -63 -139.5t-25 -171.5v-177h-223zM667 1012v176q0 51 14 105.5t39 106.5t58 98t72 81l128 -79q-38 -65 -63 -139.5t-25 -171.5v-177h-223z" />
<glyph unicode="&#x201d;" d="M300 1075q38 65 62.5 140t24.5 172v173h223v-173q0 -51 -14 -105.5t-39 -106t-58 -98t-72 -81.5zM659 1075q38 65 62.5 140t24.5 172v173h223v-173q0 -51 -14 -105.5t-39 -106t-58 -98t-72 -81.5z" />
<glyph unicode="&#x201e;" d="M321 -248q38 65 60.5 139t22.5 171v173h233l-1 -172q0 -51 -13 -105t-36.5 -106t-55.5 -98.5t-71 -80.5zM643 -248q38 65 63.5 139t25.5 171v173h233l-1 -172q0 -51 -14 -105t-38.5 -106t-57.5 -98.5t-72 -80.5z" />
<glyph unicode="&#x2022;" d="M404 728v58q0 49 16.5 91t46.5 72t73 47t97 17q55 0 98.5 -17t74 -47t46.5 -72t16 -91v-58q0 -49 -16 -90t-46.5 -71t-74 -46.5t-97.5 -16.5t-97.5 16.5t-73.5 46.5t-46.5 71t-16.5 90z" />
<glyph unicode="&#x2026;" d="M101 160q0 39 13 72.5t38 58t61 39t81 14.5t81 -14.5t60.5 -39t38 -58t13.5 -72.5q0 -38 -13.5 -71t-38 -57.5t-60.5 -38.5t-81 -14t-81 14t-61 38.5t-38 57.5t-13 71zM498 160q0 39 13 72.5t38 58t61 39t81 14.5t81 -14.5t60.5 -39t38 -58t13.5 -72.5q0 -38 -13.5 -71 t-38 -57.5t-60.5 -38.5t-81 -14t-81 14t-61 38.5t-38 57.5t-13 71zM895 160q0 39 13 72.5t38 58t61 39t81 14.5t81 -14.5t60.5 -39t38 -58t13.5 -72.5q0 -38 -13.5 -71t-38 -57.5t-60.5 -38.5t-81 -14t-81 14t-61 38.5t-38 57.5t-13 71z" />
<glyph unicode="&#x202f;" horiz-adv-x="385" />
<glyph unicode="&#x2039;" d="M392 518v19l282 390h181l-242 -400l242 -399h-181z" />
<glyph unicode="&#x203a;" d="M385 127l241 399l-241 400h181l283 -390v-19l-283 -390h-181z" />
<glyph unicode="&#x205f;" horiz-adv-x="482" />
<glyph unicode="&#x20ac;" d="M121 520v148h171v126h-171v147h173q8 132 54 232t122.5 167.5t180 101.5t226.5 34q61 0 119.5 -8.5t117.5 -22.5l-32 -228q-43 14 -93 23t-100 9q-138 0 -220 -73t-94 -235h341v-147h-343v-126h343v-148h-343q3 -87 26.5 -147.5t64 -97.5t96.5 -53.5t125 -16.5 q53 0 102.5 7.5t94.5 24.5l32 -227q-59 -14 -123 -22t-130 -8q-122 0 -224.5 34t-178 101.5t-119 169t-47.5 235.5h-171z" />
<glyph unicode="&#x2122;" d="M115 1351v105h404v-105h-132v-434h-136v434h-136zM590 914v542h153l120 -372l128 372h145v-542h-124v357l-114 -357h-70l-114 358v-358h-124z" />
<glyph unicode="&#x25fc;" horiz-adv-x="1080" d="M0 0v1080h1080v-1080h-1080z" />
</font>
</defs>
</svg>
