<?xml version="1.0" standalone="no"?>
<!DOCTYPE svg PUBLIC "-//W3C//DTD SVG 1.1//EN" "http://www.w3.org/Graphics/SVG/1.1/DTD/svg11.dtd" >
<svg xmlns="http://www.w3.org/2000/svg">
<metadata></metadata>
<defs>
<font id="roboto_monolight_italic" horiz-adv-x="1202" >
<font-face units-per-em="2048" ascent="1536" descent="-512" />
<missing-glyph horiz-adv-x="500" />
<glyph horiz-adv-x="0" />
<glyph unicode="&#xd;" />
<glyph horiz-adv-x="0" />
<glyph horiz-adv-x="0" />
<glyph />
<glyph unicode="&#x9;" />
<glyph unicode=" " />
<glyph unicode="!" d="M406 72q3 34 28.5 59t60.5 26q18 0 33 -6.5t26 -18t16.5 -27t4.5 -33.5q-2 -35 -28.5 -57.5t-61.5 -23.5t-58 22.5t-21 58.5zM488 435l178 1021h119l-178 -1021h-119z" />
<glyph unicode="&#x22;" d="M465 1090l55 323l18 123h105l-22 -132l-65 -314h-91zM759 1090l55 322l19 124h105l-23 -129l-65 -317h-91z" />
<glyph unicode="#" d="M25 410l16 93h262l158 441h-270l17 96h286l150 416h102l-150 -416h300l150 416h101l-149 -416h222l-17 -96h-239l-157 -441h247l-17 -93h-263l-147 -410h-102l147 410h-299l-147 -410h-101l146 410h-246zM405 503h300l157 441h-299z" />
<glyph unicode="$" d="M144 418h118q-5 -71 10.5 -131.5t51 -105t90.5 -70.5t129 -27q64 -1 124 18t108 55.5t79.5 89.5t38.5 120q6 63 -14 111t-57.5 84.5t-86.5 63.5t-100 48q-71 29 -134.5 65t-110 85t-71.5 113.5t-19 149.5q6 87 41 155.5t90.5 118t128 78.5t155.5 37l34 201h102l-35 -204 q85 -13 143.5 -54.5t92.5 -102t46.5 -135t6.5 -153.5h-117q5 62 -5 122.5t-38.5 108.5t-76.5 78.5t-119 32.5q-64 2 -121 -17.5t-101 -56.5t-73 -89.5t-36 -116.5q-7 -66 13 -114.5t57.5 -85t87.5 -63t103 -47.5q70 -29 133.5 -65t110 -84.5t71 -113t18.5 -148.5 q-7 -89 -43 -157.5t-93 -117t-131.5 -76.5t-157.5 -37l-33 -189h-103l34 190q-90 10 -156.5 46.5t-109.5 94t-62 133t-13 162.5z" />
<glyph unicode="%" d="M130 1107l13 77q10 54 34.5 106.5t61.5 94t86.5 67t109.5 25.5q61 0 103 -26t66.5 -68t32 -94.5t0.5 -104.5l-13 -77q-10 -54 -34.5 -106t-61.5 -92.5t-86 -66t-109 -25.5t-102 26t-67 67t-33.5 93t-0.5 104zM202 209l764 1083l70 -46l-762 -1086zM220.5 1039 q1.5 -36 14 -66t37.5 -49t66 -19t73 18.5t55.5 47.5t38.5 65t23 71l15 77q5 32 3.5 68t-13.5 66.5t-36.5 50.5t-66.5 20q-41 0 -73.5 -18.5t-56.5 -48.5t-39.5 -66.5t-22.5 -71.5l-14 -77q-5 -32 -3.5 -68zM595 270l13 78q10 54 34.5 106.5t62 93t87 66t109.5 25.5t102 -26 t66.5 -67.5t33 -93.5t1.5 -104l-13 -78q-10 -54 -34.5 -106.5t-61.5 -93t-86.5 -66t-109.5 -25.5t-102.5 26t-67 67t-33 93t-1.5 105zM686.5 201q1.5 -36 13.5 -66t37 -49.5t67 -19.5q41 0 73.5 18.5t56 48t38.5 66t22 71.5l15 78q5 33 3.5 68.5t-13.5 65.5t-36.5 49.5 t-66.5 19.5t-74 -18t-55.5 -47.5t-39 -65.5t-22.5 -72l-15 -78q-5 -33 -3.5 -69z" />
<glyph unicode="&#x26;" d="M94 354q6 73 36.5 135.5t75.5 115.5t101 97t113 82l14 9q-21 40 -40 82t-32.5 85t-19.5 88t-2 92q6 72 34 134t73.5 108t107.5 71.5t137 24.5q58 -2 105 -24t80 -60t49.5 -88t12.5 -107q-4 -53 -25.5 -97.5t-53.5 -83t-71 -71.5t-78 -63l-137 -104l283 -465 q57 76 92.5 159.5t52.5 176.5h107q-16 -121 -63.5 -227.5t-129.5 -198.5l136 -225h-132l-85 140q-82 -70 -177.5 -115.5t-205.5 -43.5q-81 1 -149.5 28.5t-117.5 76t-73.5 117t-17.5 151.5zM214 354q-6 -59 9 -108.5t47.5 -85.5t80 -56.5t105.5 -22.5q95 -2 175.5 39 t149.5 102l-288 479l-8 12l-40 -32q-38 -30 -77 -65.5t-71 -77t-54.5 -87.5t-28.5 -97zM458 1142q-8 -75 14 -144.5t55 -134.5l141 108q28 21 54 46t47.5 53.5t35.5 60.5t18 69q3 33 -4.5 64.5t-25.5 56t-45 39.5t-63 16q-49 1 -89 -18.5t-69 -52.5t-46.5 -75.5t-22.5 -87.5 z" />
<glyph unicode="'" d="M575 1090l53 305l23 141h106l-23 -147l-64 -299h-95z" />
<glyph unicode="(" d="M347 390.5q4 93.5 17 178.5l3 16q15 96 40.5 197.5t62 201t85 194.5t109.5 179.5t136 154.5t165 121l21 -82q-115 -80 -199.5 -190.5t-144 -238t-97 -264t-58.5 -268.5l-3 -20q-11 -74 -18.5 -159t-6.5 -174t12.5 -178.5t37 -171.5t68 -154t105.5 -125l-34 -77 q-74 57 -127.5 132.5t-89 162.5t-55 182.5t-26.5 192t-3 190z" />
<glyph unicode=")" d="M180 -391q114 79 197.5 190.5t143 239.5t96.5 265t58 268l3 20q11 73 18.5 158t6 174t-12.5 179t-37 172.5t-68 154t-105 124.5l35 77q73 -57 126.5 -132.5t89 -162.5t55 -182.5t26.5 -192.5t2.5 -191t-16.5 -178l-3 -16q-15 -96 -40 -196.5t-61 -199.5t-83.5 -194 t-108 -179.5t-134 -156t-161.5 -123.5z" />
<glyph unicode="*" d="M233 967l52 109l348 -143l54 409h117l-82 -406l382 144l20 -118l-395 -116l212 -323l-103 -67l-183 341l-280 -337l-89 73l304 323z" />
<glyph unicode="+" d="M118 623l21 117h420l82 466h119l-81 -466h431l-21 -117h-430l-84 -477h-119l83 477h-421z" />
<glyph unicode="," d="M227 -245q51 62 85 130t48 147l27 156h126l-25 -152q-17 -99 -65.5 -182t-123.5 -149z" />
<glyph unicode="-" horiz-adv-x="1203" d="M221 601l18 101h722l-19 -101h-721z" />
<glyph unicode="." d="M436 83q1 21 9.5 39.5t22.5 33t32.5 23t39.5 8.5t39.5 -7.5t31.5 -21t20 -32t6 -39.5q-2 -43 -32.5 -71t-72.5 -29q-21 0 -39 7t-31 19.5t-20 30.5t-6 39z" />
<glyph unicode="/" d="M141 -125l864 1581h117l-865 -1581h-116z" />
<glyph unicode="0" d="M141.5 441q-0.5 69 8.5 135l49 303q12 71 33 144t53 140t75 125t99 101t125 66.5t153 21.5q81 -2 141 -28.5t102 -71t68 -103.5t38.5 -124.5t13 -135t-8.5 -135.5l-49 -302q-12 -72 -33 -145t-52.5 -140t-74.5 -125t-99 -100.5t-125 -65.5t-153 -21q-80 2 -140 28.5 t-102.5 71t-68.5 103t-39 124t-13.5 134.5zM248 480l741 597q-4 59 -20.5 112t-48 94t-78.5 65.5t-112 26.5q-66 2 -119 -17.5t-95.5 -54t-75 -81.5t-56 -100.5t-38.5 -110.5t-24 -112l-59 -341q-5 -20 -8 -39t-7 -39zM253 368q5 -57 22.5 -108.5t49 -90.5t77.5 -62.5 t109 -25.5q99 -3 170 40t119.5 113t77 155.5t41.5 168.5l60 341q4 16 6.5 32t5.5 33z" />
<glyph unicode="1" d="M302 1129l22 119l522 208h20l-249 -1456h-119l226 1301z" />
<glyph unicode="2" d="M31 0l15 97l543 536q46 46 96.5 96t94.5 105.5t75.5 117.5t39.5 131q7 61 -7.5 113.5t-47 91.5t-81.5 62t-112 25q-77 2 -139 -24t-108 -72.5t-76 -109t-43 -132.5l-117 -1q13 94 55 175.5t106 140.5t147.5 92.5t181.5 31.5q84 -2 154 -31t119 -80t72.5 -122.5 t15.5 -156.5q-8 -81 -43 -153.5t-85.5 -137.5t-109.5 -123.5t-114 -111.5l-467 -459h740l-17 -101h-888z" />
<glyph unicode="3" d="M59 395h117q-5 -68 12.5 -124.5t54.5 -98t91 -65.5t123 -26q73 -2 137 20t113 64t80 101.5t39 133.5q7 72 -13 126t-60.5 89.5t-98 54t-124.5 20.5l-126 1l19 102l112 -1q67 0 132.5 18.5t119 55t89 91t43.5 127.5q7 63 -6.5 115.5t-45 91t-80.5 60.5t-112 24 q-71 2 -130.5 -19.5t-106 -61.5t-78 -96t-45.5 -123l-117 -1q14 90 57 165t106.5 128.5t145 82.5t173.5 27q86 -2 156 -32t117.5 -82t70 -124t14.5 -159q-6 -65 -33 -117.5t-68 -94.5t-93 -73t-109 -53q111 -41 165 -130.5t44 -207.5q-8 -97 -50.5 -176.5t-109 -135 t-152.5 -85t-181 -27.5q-90 2 -165 33t-127.5 85.5t-79 130t-20.5 166.5z" />
<glyph unicode="4" d="M43 368l9 68l826 1020h134l-172 -987h222l-18 -101h-221l-64 -368h-119l65 368h-662zM204 469h518l144 824l-68 -92z" />
<glyph unicode="5" d="M166 384h114q1 -64 17.5 -118.5t49.5 -95t83 -64.5t118 -26q84 -2 148.5 30.5t109.5 87t71.5 126t34.5 146.5q7 66 -4 128.5t-42 111.5t-83 79.5t-125 33.5q-83 3 -152 -24.5t-133 -78.5l-98 29l193 707h710l-21 -116h-606l-139 -487q61 40 130 60.5t143 18.5 q97 -2 166.5 -41.5t112.5 -103.5t60 -146t8 -170q-10 -101 -47.5 -191.5t-100 -158t-149.5 -106.5t-195 -36q-89 2 -158 33.5t-117 85.5t-73.5 127t-25.5 159z" />
<glyph unicode="6" d="M132 514l18 129q16 110 48.5 213.5t81 195t114.5 167.5t149.5 131.5t185 86t221.5 31.5h21l-12 -109h-16q-138 0 -244.5 -46t-186.5 -125t-135.5 -185.5t-90.5 -228.5q69 85 165 134.5t208 47.5q96 -2 165 -44t111.5 -108t59 -150t7.5 -170q-9 -96 -46.5 -188t-100 -163 t-147.5 -113t-190 -40q-107 2 -185 50t-126 123.5t-67 170t-8 190.5zM249.5 414q2.5 -50 13.5 -97.5t32 -89.5t52.5 -74.5t75 -51.5t100.5 -20q53 -1 99.5 15t85 44.5t69 67.5t52.5 83.5t36 92.5t19 96q7 65 -3 130.5t-40 118.5t-81 87.5t-126 36.5q-54 2 -112.5 -15.5 t-110.5 -50.5t-91.5 -78.5t-55.5 -100.5l-12 -97q-5 -47 -2.5 -97z" />
<glyph unicode="7" d="M227 0l811 1349h-801l17 107h928l-8 -69l-818 -1387h-129z" />
<glyph unicode="8" d="M134 377q6 72 34.5 130.5t73 105t101.5 81t121 57.5q-45 24 -79 58t-56 75.5t-31.5 89t-5.5 98.5q7 92 46.5 167.5t102.5 129t144.5 81.5t171.5 26q83 -2 152.5 -30.5t118.5 -79.5t73.5 -121t17.5 -155q-6 -65 -31.5 -118.5t-64.5 -96.5t-90 -76t-108 -56q52 -23 93 -59 t68 -81t39 -97.5t8 -110.5q-8 -99 -52.5 -177t-114 -131.5t-157.5 -81t-182 -25.5q-87 2 -162.5 30t-129.5 79t-81.5 123.5t-19.5 164.5zM254 376q-7 -67 11 -121t56 -92.5t92 -60t119 -22.5q71 -2 136.5 19.5t117.5 62.5t86 100t42 132q7 65 -11.5 120t-56 95t-91.5 63 t-118 25q-71 1 -137 -21.5t-118 -65t-86.5 -102.5t-41.5 -132zM410 1073q-6 -59 10 -109t48.5 -86.5t80.5 -58t107 -22.5q65 -2 124 19.5t105.5 60.5t76.5 94t37 120q6 58 -10 109.5t-49 89.5t-81.5 60.5t-107.5 24.5q-66 1 -125 -21t-105 -62.5t-75 -96.5t-36 -122z" />
<glyph unicode="9" d="M207 958q7 65 26 129.5t50.5 122.5t73.5 107.5t95 85t115.5 55.5t134.5 19q79 -2 139.5 -27t104.5 -67.5t72 -99t43 -120.5t17 -133t-6 -135l-16 -116q-24 -163 -81 -306.5t-152 -251t-229.5 -170t-312.5 -63.5h-30l12 108h25q140 1 245.5 44.5t183 121t128.5 184 t83 232.5q-69 -94 -165 -149t-215 -52q-96 3 -164.5 46.5t-110.5 111.5t-58 153t-8 170zM325 963q-7 -63 2.5 -130t38 -122.5t78.5 -92t124 -38.5q57 -2 117.5 18t113.5 55.5t93 84.5t56 106l8 62q5 47 5 100t-8.5 104.5t-26.5 98.5t-48.5 83.5t-75 58.5t-104.5 23 q-82 1 -147.5 -35.5t-113 -96t-76 -133t-36.5 -146.5z" />
<glyph unicode=":" d="M488 83q1 21 9.5 39.5t22.5 33t32.5 23t39.5 8.5t39.5 -7.5t31.5 -21t20 -32t6 -39.5q-2 -43 -32.5 -71t-72.5 -29q-21 0 -39 7t-31 19.5t-20 30.5t-6 39zM640 959q1 21 9.5 39.5t22.5 33t32.5 23t39.5 8.5t39.5 -7.5t31.5 -21t20 -32t6 -39.5q-2 -43 -32.5 -71 t-72.5 -29q-21 0 -39 7t-31 19.5t-20 30.5t-6 39z" />
<glyph unicode=";" d="M366 -245q51 62 85 130t48 147l27 156h126l-25 -152q-17 -99 -65.5 -182t-123.5 -149zM636 959q1 21 9.5 39.5t22.5 33t32.5 23t39.5 8.5t39.5 -7.5t31.5 -21t20 -32t6 -39.5q-2 -43 -32.5 -71t-72.5 -29q-21 0 -39 7t-31 19.5t-20 30.5t-6 39z" />
<glyph unicode="&#x3c;" d="M162 612l17 96l900 379l-24 -132l-752 -302l649 -300l-22 -121z" />
<glyph unicode="=" d="M133 401l19 106h868l-19 -106h-868zM204 812l19 106h868l-19 -106h-868z" />
<glyph unicode="&#x3e;" d="M111 229l24 129l766 305l-662 302l21 118l785 -379l-17 -96z" />
<glyph unicode="?" d="M303 1117q15 83 54.5 150.5t98 114.5t133.5 71.5t160 22.5q79 -2 143.5 -29t109 -74.5t65 -114t13.5 -146.5q-7 -74 -36.5 -136t-73 -115.5t-97 -100t-108.5 -88.5q-68 -53 -104.5 -118.5t-51.5 -149.5l-115 -1q9 59 25 106.5t41 88.5t60 78t80 74q43 36 86.5 74.5 t79.5 82.5t61 94.5t32 109.5q6 56 -5.5 103t-39.5 81.5t-71.5 54t-100.5 21.5q-62 2 -114.5 -15.5t-94 -51t-70.5 -81.5t-42 -106h-118zM409 72q3 35 28.5 59.5t60.5 25.5q18 0 33 -6.5t26 -18t16.5 -27t4.5 -33.5q-2 -35 -28.5 -57.5t-61.5 -23.5t-58 22.5t-21 58.5z" />
<glyph unicode="@" d="M58.5 509.5q1.5 83.5 15.5 168.5q15 90 45.5 184.5t75.5 182.5t105 165.5t135 134.5t164.5 89t194.5 30q93 -2 160 -33t112 -82.5t70.5 -119t35.5 -142.5t7 -154t-15 -153q-7 -42 -18 -94t-28.5 -106t-42 -105.5t-57.5 -91.5t-76.5 -63.5t-98.5 -22.5q-36 1 -62.5 14.5 t-43.5 36.5t-25 52.5t-9 62.5q-20 -28 -43 -57.5t-50.5 -54t-60 -39.5t-70.5 -15q-43 0 -71 21t-44.5 54t-22.5 74.5t-6.5 84t4 81t9.5 66.5q9 50 25 106.5t39.5 111t56 104t74 86.5t93 58t113.5 19q54 -2 94.5 -27.5t76.5 -63.5l-2 -1l-124 -506q-4 -22 -6.5 -53t2 -60 t20 -50.5t48.5 -22.5q40 -2 71.5 19.5t55 57t40 80t28 89.5t18.5 86t11 69q9 61 13 128t-2 132t-24 124.5t-53.5 105t-90.5 73.5t-135 30q-92 2 -170.5 -26.5t-143.5 -80t-117 -121t-90.5 -147.5t-65 -160.5t-39.5 -160.5q-12 -70 -15.5 -141.5t6 -137.5t33.5 -123.5 t66.5 -100.5t105 -68t149.5 -26q68 0 133 20t125 52l19 -82q-62 -41 -134.5 -61t-146.5 -19q-101 1 -176 29t-127.5 76t-84.5 113.5t-46 141.5t-12.5 159.5zM425.5 512q1.5 -32 9.5 -58.5t24 -44t43 -18.5q37 -2 71.5 19t62.5 53t48.5 69.5t31.5 67.5l115 442q-19 15 -38 23 t-44 10q-50 3 -90.5 -14.5t-72.5 -49t-56.5 -73t-42 -86.5t-29.5 -90t-19 -84q-3 -16 -7 -43.5t-6 -59t-0.5 -63.5z" />
<glyph unicode="A" d="M-10 0l713 1456h107l204 -1456h-115l-54 406h-534l-196 -406h-125zM362 513h469l-101 761z" />
<glyph unicode="B" d="M83 0l253 1456l379 -1q82 -3 156.5 -27.5t129.5 -71t85 -114.5q23 -54 23 -122q0 -18 -2 -37q-5 -64 -30 -115t-63.5 -90.5t-89 -69t-106.5 -51.5q56 -18 99.5 -51t72.5 -78q28 -44 40 -98q9 -41 10 -84q0 -14 -1 -28q-7 -98 -51.5 -175.5t-113.5 -131.5t-157 -82.5 t-181 -28.5h-453zM220 104l323 -2q70 1 134.5 23t116 62.5t85 98.5t41.5 130q2 17 2 32q0 42 -12 80q-16 50 -49.5 87t-82.5 59t-109 25l-345 1zM341 803l278 -2q65 0 128 18.5t114 54.5t85 89t42 123q2 17 2 33q0 45 -15 81q-20 48 -58 80.5t-90.5 50t-111.5 19.5l-278 1z " />
<glyph unicode="C" d="M116 480v19q0 63 9 123l34 211q13 75 36.5 152.5t59.5 149.5t83.5 135t107.5 110q60 46 134 72q68 24 149 24h12q100 -2 174 -40.5t123.5 -102t74 -147t25.5 -176.5h-117q-2 68 -18 133t-49.5 116t-87.5 82.5t-131 33.5h-11q-64 0 -118 -21q-58 -23 -106 -63.5t-84 -94.5 t-63 -114.5t-45 -124t-28 -122.5l-36 -214q-8 -51 -10 -111v-21q0 -49 6 -98q7 -59 25 -114t50.5 -97.5t81 -69.5t116.5 -29h16q73 -1 133 25q66 28 116 78.5t85.5 117.5t58.5 139l110 2q-22 -96 -67.5 -181.5t-112 -149t-153.5 -99.5q-80 -33 -176 -33h-16q-84 3 -147.5 32 t-109 77.5t-74.5 112t-43.5 134t-16.5 144.5z" />
<glyph unicode="D" d="M66 0l253 1456l335 -1q133 -4 229.5 -61.5t154.5 -149.5t80 -208q12 -67 13 -135q0 -51 -7 -102l-22 -143q-21 -131 -78 -250t-145 -209t-204.5 -143.5t-257.5 -53.5h-351zM203 101l217 -1q118 1 213.5 47.5t167 123.5t117.5 177t64 208l23 147q7 49 7 100v28 q-2 65 -17 125t-43 113t-70.5 92.5t-99.5 64t-131 27.5l-230 1z" />
<glyph unicode="E" d="M90 0l252 1456h833l-19 -105h-714l-95 -549h623l-18 -104h-623l-103 -594h718l-18 -104h-836z" />
<glyph unicode="F" d="M98 0l253 1456h838l-19 -105h-718l-98 -566h625l-19 -105h-624l-119 -680h-119z" />
<glyph unicode="G" d="M112 485q-1 17 -1 34q0 57 8 112l33 204q13 75 37.5 152.5t61 149.5t85.5 134.5t110.5 108.5t135.5 72q70 24 150 24h12q93 -2 166 -36t123.5 -92.5t78 -136t28.5 -166.5h-115q-5 64 -24 122.5t-53.5 103t-86.5 71.5t-123 29h-12q-64 0 -118 -21q-59 -22 -107.5 -61.5 t-86 -92.5t-66 -113t-47.5 -123.5t-29 -122.5l-34 -207q-8 -55 -8 -115.5t9.5 -120t30.5 -113.5t56 -96.5t85.5 -69t118.5 -30.5q15 -1 29 -1q85 0 163 25q92 29 162 102l64 376h-335l19 104h446l-78 -517q-93 -101 -216 -150q-112 -43 -236 -43h-25q-84 3 -149.5 32.5 t-113.5 78t-79.5 112.5t-48.5 135t-20 146z" />
<glyph unicode="H" d="M49 0l253 1456h112l-114 -654h661l114 654h112l-253 -1456h-112l121 698h-660l-122 -698h-112z" />
<glyph unicode="I" d="M82 0l19 106h343l215 1242h-344l20 108h820l-19 -108h-354l-215 -1242h354l-19 -106h-820z" />
<glyph unicode="J" d="M75 411l120 -1q-1 -14 -1 -27q0 -51 12 -97q15 -59 48.5 -103.5t85.5 -71t123 -27.5h10q71 0 132 27q65 29 115 79t83 115.5t45 136.5l174 1014h122l-174 -1014q-15 -96 -59.5 -181t-112 -148t-154.5 -99q-83 -34 -178 -34h-11q-94 1 -166 35t-120 92t-72 136 q-22 72 -22 154v14z" />
<glyph unicode="K" d="M88 0l254 1456h120l-136 -771l227 222l552 549h157l-655 -653l432 -803h-135l-386 719l-220 -202l-89 -517h-121z" />
<glyph unicode="L" d="M108 0l253 1456h119l-235 -1352h720l-19 -104h-838z" />
<glyph unicode="M" d="M56 0l253 1456h150l140 -820l444 820h158l-253 -1456h-117l113 648l119 632l-455 -842h-78l-144 843l-102 -639l-111 -642h-117z" />
<glyph unicode="N" d="M51 0l253 1456h114l435 -1229l215 1229h118l-252 -1456h-115l-435 1231l-215 -1231h-118z" />
<glyph unicode="O" d="M117 489v13q0 67 9 129l31 192q12 74 35.5 151.5t58.5 151t82 138t107 112.5t134 75q68 25 148 25h12q84 -2 147 -32.5t108 -80.5t73 -115t42 -137t14 -146q0 -4 -1 -8q0 -70 -8 -134l-31 -191q-13 -74 -36 -152t-58 -151t-81.5 -137.5t-106.5 -112.5t-134 -75 q-66 -24 -143 -24h-17q-83 2 -146 32.5t-108 80t-73.5 114.5t-42.5 136.5t-15 145.5zM234 520v-27q0 -47 5 -93q7 -60 25 -115.5t50 -98.5t80 -70t116 -29h16q62 1 113 21q58 24 105 64.5t82.5 95.5t62 116t44 125t27.5 122l32 196q7 51 9 111v26q0 46 -5 92 q-7 60 -24.5 115.5t-49.5 98.5t-80 70t-116 29h-11q-63 1 -117 -21q-58 -24 -105 -65t-83 -96t-62.5 -116.5t-44.5 -124.5t-28 -121l-32 -195q-7 -50 -9 -110z" />
<glyph unicode="P" d="M104 0l253 1456l438 -1q89 -3 162.5 -36t124.5 -89t76 -132q19 -58 19 -123q0 -21 -2 -43q-9 -101 -54 -181t-115 -136t-158.5 -86t-185.5 -30l-334 1l-105 -600h-119zM345 701l321 -2q74 0 141 23.5t119.5 67t86.5 104.5t43 137q2 21 2 41q0 43 -10 82q-15 57 -49.5 100 t-87 69.5t-119.5 29.5l-334 1z" />
<glyph unicode="Q" d="M102 495q-1 10 -1 19q0 65 9 126l28 174q13 76 37.5 155.5t61 154t86 139.5t112 113t137.5 75q71 25 153 25h12q86 -2 151.5 -32.5t112.5 -80.5t77 -115.5t45 -138.5t17 -149v-20q0 -65 -9 -126l-28 -173q-14 -87 -41.5 -171.5t-70 -160.5t-101.5 -141t-135 -113 l201 -239l-89 -70l-222 256q-35 -10 -71 -16q-30 -4 -61 -4h-11q-85 1 -150 31t-112 80t-77 115.5t-45 138.5t-16 148zM218 524v-18q0 -52 8 -104q8 -61 27.5 -117t53.5 -99.5t84 -70t120 -28.5h12q67 0 123 21q60 23 109 64t87 96.5t66 117.5t46.5 127.5t29.5 126.5l29 177 q8 54 9 115q1 10 1 20q0 52 -7 102q-8 61 -27.5 116.5t-53 99t-84 70t-120.5 28.5h-12q-66 0 -121 -21q-61 -23 -110 -64t-87.5 -96.5t-66.5 -117.5t-47 -127t-30 -126l-29 -177q-8 -54 -10 -115z" />
<glyph unicode="R" d="M92 0l253 1456l392 -1q90 -3 165 -35t127 -86.5t78 -130.5q19 -56 19 -122q0 -23 -2 -46q-7 -77 -36.5 -139t-75.5 -111.5t-106 -86.5t-128 -64l216 -621l-2 -13h-124l-202 609h-350l-106 -609h-118zM333 710l301 -2q70 1 134 25.5t114 68t82.5 103.5t40.5 131q2 20 2 40 q0 44 -11 84q-16 57 -52 99t-89.5 66.5t-120.5 27.5l-289 1z" />
<glyph unicode="S" d="M103 405h118q1 -73 24.5 -131.5t65.5 -100t101 -65t132 -24.5h14q58 0 116 16q64 18 117 53t88 88.5t42 124.5q2 16 2 30q0 29 -7 55q-10 38 -30.5 68.5t-50 55t-64 44t-72 35.5t-74.5 30q-70 26 -139 60.5t-123 83.5q-53 48 -85 113q-26 55 -27 124q0 13 1 27 q4 61 26.5 114t58.5 96t82.5 76t99.5 55.5t111 32.5q52 10 104 10h10q90 -2 165.5 -35t128.5 -89q52 -58 80 -134q24 -67 25 -143q0 -11 -1 -23h-119q-1 66 -19.5 123t-54 100t-88.5 68.5t-122 27.5h-13q-56 0 -112 -16q-62 -18 -113.5 -53.5t-86 -88t-40.5 -119.5 q-1 -13 -1 -25q0 -51 20 -91q25 -48 68 -83t97.5 -59t107.5 -43q73 -26 144 -62.5t125 -87.5t85 -119q25 -55 26 -124q0 -16 -2 -32q-5 -64 -27.5 -118t-59 -97.5t-84.5 -76t-102.5 -54.5t-113.5 -32q-54 -10 -108 -10h-10q-93 1 -174.5 31.5t-141 86t-91.5 133.5 q-29 69 -29 153v21z" />
<glyph unicode="T" d="M220 1351l19 105h1016l-19 -105h-449l-235 -1351h-116l235 1351h-451z" />
<glyph unicode="U" d="M131 468l171 988h112l-166 -988q-3 -29 -3 -57q0 -39 6 -78q11 -67 42.5 -121.5t85 -89.5t130.5 -38h14q73 0 134 30q67 32 117.5 87t83 125t45.5 144l171 986h115l-167 -985q-15 -98 -59 -187.5t-111 -157.5q-68 -68 -156 -108q-84 -38 -184 -38h-10q-99 2 -173 44.5 t-121 110.5q-48 69 -68 155q-13 57 -12 116q0 31 3 62z" />
<glyph unicode="V" d="M220 1456h122l182 -1271l583 1271h130l-681 -1456h-111z" />
<glyph unicode="W" d="M187 0l29 1456h111l-31 -1130l-7 -81l25 89l380 1122h104l30 -1131l-5 -86l23 94l320 1123h113l-427 -1456h-118l-24 1206l-404 -1206h-119z" />
<glyph unicode="X" d="M5 0l560 744l-312 712h133l257 -620l455 620h146l-543 -724l322 -732h-132l-269 640l-471 -640h-146z" />
<glyph unicode="Y" d="M224 1456h130l236 -791l514 791h141l-615 -915l-96 -541h-112l95 556z" />
<glyph unicode="Z" d="M31 0l14 99l934 1252h-716l17 105h856l-13 -94l-938 -1258h768l-17 -104h-905z" />
<glyph unicode="[" d="M295 -312l309 1976h338l-16 -102h-224l-277 -1772h224l-16 -102h-338z" />
<glyph unicode="\" d="M398 1456h107l316 -1581h-107z" />
<glyph unicode="]" d="M273 -312l17 102h222l277 1772h-223l16 102h339l-309 -1976h-339z" />
<glyph unicode="^" d="M245 667l453 789h89l177 -789h-109l-135 626l-1 6l-1 -7l-352 -625h-121z" />
<glyph unicode="_" d="M45 -101l18 101h857l-18 -101h-857z" />
<glyph unicode="`" d="M583 1498h134l131 -266h-95z" />
<glyph unicode="a" d="M111 279q4 69 30 122t67 92t94.5 65.5t112.5 42t120 22.5t119 7l233 -1l18 124q2 16 2 31q0 40 -12 74q-16 46 -49 77t-80 48t-103 19h-8q-51 0 -99 -12q-52 -13 -95 -40.5t-75 -69t-46 -96.5h-117q13 80 57 140t106 100t137 60q71 19 144 18h7q78 -2 145.5 -26 t115.5 -69q49 -45 73 -109q18 -49 18 -108q0 -19 -2 -40l-87 -524q-7 -45 -7 -88v-19q2 -52 4 -106l-1 -13h-123q-4 30 -4 60v18q2 38 8 78q-78 -82 -179 -130q-97 -46 -208 -46h-9q-65 2 -122.5 23t-99.5 59q-43 40 -66 94q-20 46 -20 103q0 10 1 20zM230 289 q-1 -12 -2 -23q0 -34 12 -62q16 -37 44.5 -63t68 -40t83.5 -15h15q53 0 103 12q57 14 107.5 42t93.5 68.5t76 90.5l41 238l-203 1q-43 0 -90.5 -3.5t-94.5 -13.5t-91 -28t-78.5 -45.5t-57 -66.5t-27.5 -92z" />
<glyph unicode="b" d="M88 0l266 1536h120l-113 -605q65 81 149 127q79 44 176 44h13q73 -2 128.5 -26.5t94.5 -65t64 -93.5t37.5 -113t14.5 -124v-22q0 -52 -6 -101l-3 -21q-9 -66 -28 -134t-49 -130.5t-70.5 -116.5t-92.5 -94q-53 -40 -117 -62q-59 -20 -127 -20h-13q-93 2 -172 44t-127 122 l-34 -145h-111zM257 279q29 -88 97 -140.5t162 -55.5h12q56 1 102 17q52 18 92.5 50.5t72 77t54.5 95.5t37.5 105.5t22.5 107.5l3 21q6 47 6 97q0 3 1 6q0 47 -7 92q-7 48 -23.5 92t-45.5 77.5t-71 54t-101 22.5h-12q-49 0 -93 -14q-48 -16 -89 -45t-75 -68.5t-60 -84.5z " />
<glyph unicode="c" d="M142 387q-2 25 -2 51q0 40 4 79l5 43q9 70 31 138t56 129t80 112.5t102.5 88t123.5 56.5q61 18 130 18h14q83 -2 150.5 -31.5t115 -81t72.5 -121.5q22 -62 22 -135v-17l-114 1v18q0 49 -14 92q-16 51 -48.5 89t-80.5 60.5t-109 24.5h-13q-84 1 -151 -35 q-72 -38 -124 -101.5t-83.5 -143.5t-42.5 -161l-5 -42q-5 -41 -5 -83q0 -33 3 -67q7 -76 36 -139t84.5 -104t144.5 -44h12q54 -1 104 15q55 18 100 51t77.5 80t48.5 106h113q-15 -81 -58.5 -147t-105.5 -112q-62 -48 -139 -72q-71 -23 -146 -22h-12q-74 2 -133 24t-103 60 t-73.5 89t-46 110t-20.5 124z" />
<glyph unicode="d" d="M136 402q-1 16 -1 33q0 45 5 89l3 21q9 67 28.5 134.5t49.5 130.5t71.5 117t94.5 94q53 39 117 61q59 20 129 20h13q92 -2 167.5 -44.5t121.5 -123.5l108 602h118l-266 -1536h-112l27 140q-66 -77 -150 -120q-79 -40 -174 -40h-13q-71 2 -125.5 27t-93.5 65.5t-64.5 94 t-38.5 113.5t-15 122zM254 428q0 -50 7.5 -98t24 -91.5t45 -77t70 -54.5t99.5 -23h13q45 0 86 12q47 14 87.5 38t75 59t62.5 77l89 526q-14 43 -37.5 80t-55.5 63.5t-72 42t-87 17.5h-12q-57 -1 -103 -17q-52 -18 -93 -50.5t-73.5 -77t-55.5 -95.5t-38.5 -106t-22.5 -108 l-3 -21q-6 -46 -6 -96z" />
<glyph unicode="e" d="M131 507l5 44q9 69 32.5 137t59.5 130t84 115t106.5 91t126.5 59q62 19 130 19h13q103 -3 176 -46t117.5 -112t60.5 -157q10 -55 11 -112q0 -34 -4 -69l-9 -73h-786l-5 -24q-5 -34 -5 -68q0 -42 8 -83q14 -75 51.5 -135.5t99 -99t145.5 -41.5h18q90 0 164 36 q82 40 151 108l71 -57q-78 -95 -185 -143q-103 -47 -218 -46h-10q-109 3 -190 48t-132.5 118t-73.5 167q-15 65 -15 132q0 31 3 62zM269 635l663 -1l3 15q4 27 4 54q0 36 -7 72q-12 62 -44.5 111.5t-84.5 80.5t-121 33h-14q-73 0 -133 -28q-66 -31 -117.5 -82.5 t-88.5 -118.5t-60 -136z" />
<glyph unicode="f" horiz-adv-x="1203" d="M241 984l17 98h286l12 86q14 97 53.5 172.5t101 126.5t142.5 77q78 24 172 24h7q56 -1 110 -9t108 -20l-27 -101q-90 25 -185 27h-8q-69 0 -128 -17q-61 -19 -107.5 -56t-76.5 -93t-42 -130l-13 -87h420l-18 -98h-417l-170 -984h-123l172 984h-286z" />
<glyph unicode="g" d="M67 -242l73 70q48 -70 115 -113.5t154 -45.5h11q72 0 131 24q63 26 110.5 73t78 110.5t44.5 136.5l25 123q-66 -74 -150 -116q-80 -40 -176 -40h-9q-71 2 -125.5 26.5t-93.5 65.5t-64 94t-38.5 113t-15.5 123v27q0 48 5 94l3 22q9 67 28.5 134.5t49.5 130t70.5 117 t93.5 94.5t117 62q60 20 129 20h13q94 -3 170 -46.5t122 -124.5l35 150h112l-182 -1063q-15 -96 -55.5 -179t-103.5 -144.5t-147 -95.5q-77 -31 -170 -31h-16q-52 1 -101.5 14.5t-94 37.5t-82.5 58.5t-66 78.5zM255 428q0 -50 7.5 -98t24 -92t45 -77.5t70.5 -54t100 -22.5 h13q45 0 86 12q47 14 88 39.5t75.5 61.5t61.5 78l88 517q-14 45 -37 82t-55 64.5t-72.5 43t-88.5 17.5h-12q-56 0 -103 -17q-51 -18 -92.5 -51t-73.5 -77.5t-55 -95.5t-38 -105.5t-23 -107.5l-3 -21q-6 -46 -6 -96z" />
<glyph unicode="h" d="M82 0l267 1536h119l-122 -663q34 50 75.5 92.5t91 73t105.5 47.5q53 16 112 16h7q89 -2 149.5 -36.5t96 -91t47.5 -130.5q6 -41 5 -84q0 -34 -3 -69l-116 -691h-119l116 692q4 30 3 58q0 28 -3 56q-7 54 -31.5 96.5t-68.5 67.5t-111 27h-6q-57 0 -109 -17 q-54 -18 -101 -50.5t-85.5 -76.5t-68.5 -93l-131 -760h-119z" />
<glyph unicode="i" d="M109 0l19 106h370l151 869h-371l19 107h490l-170 -976h358l-19 -106h-847zM685 1376q2 40 27 66.5t66 27.5h3q38 0 61 -25q22 -24 22 -59v-6q-2 -39 -28 -64.5t-65 -26.5h-3q-38 -1 -61 23q-22 23 -22 58v6z" />
<glyph unicode="j" d="M18 -422l17 100q45 -7 91 -10.5t92 -3.5h6q74 0 132 24q61 25 105 70t70.5 107t37.5 135l165 975h-379l20 107h497l-185 -1082q-14 -95 -50.5 -175.5t-95 -139.5t-139 -92t-180.5 -33q-51 0 -102 5t-102 13zM767 1377q2 40 26 66t65 27h3q39 0 62 -24q22 -23 22 -59v-6 q-2 -40 -28 -65t-65 -26h-3q-38 0 -61 24q-21 22 -21 57v6z" />
<glyph unicode="k" d="M104 0l267 1536h120l-171 -980l141 120l494 406h162l-555 -461l405 -621h-141l-355 545l-176 -140l-71 -405h-120z" />
<glyph unicode="l" d="M109 0l19 106h372l229 1323h-372l19 107h491l-248 -1430h356l-19 -106h-847z" />
<glyph unicode="m" d="M-19 0l188 1082l107 1l-26 -121q44 66 104 104q59 37 138 37h4q71 -1 123.5 -36t66.5 -107q46 64 108 104q61 39 141 38h4q64 -1 105.5 -27t64.5 -68t30 -95q4 -29 3 -58q0 -25 -2 -50l-137 -804h-111l134 805q2 20 2 40q0 15 -1 30q-3 35 -16.5 62.5t-39.5 44.5t-69 17 q-38 0 -72.5 -12.5t-62.5 -35t-48 -53t-29 -67.5l-143 -831h-111l136 816q1 16 1 32q1 18 -1 36q-4 33 -18 58.5t-40 41t-67 15.5q-38 0 -72.5 -12.5t-62 -35.5t-47.5 -54t-29 -68l-143 -829h-112z" />
<glyph unicode="n" d="M82 0l188 1082h110l-34 -203q34 49 75.5 90.5t90.5 71.5q48 30 104 46q52 15 111 15h7q88 -2 149 -36.5t96 -90.5t47 -129q7 -42 7 -86q0 -33 -4 -67l-116 -693h-119l116 692q4 31 4 61q0 27 -4 53q-6 54 -30 96.5t-68.5 68t-112.5 27.5h-6q-59 0 -111 -18 q-54 -20 -100.5 -53.5t-84.5 -78.5t-66 -96l-130 -752h-119z" />
<glyph unicode="o" d="M115 517l4 33q9 71 32 140t58 131t82.5 114.5t105.5 90.5t126 58q62 19 132 18h14q74 -2 133.5 -24.5t105 -60.5t77 -90t49.5 -111.5t24 -124.5q2 -29 2 -57q0 -37 -4 -74l-4 -34q-14 -107 -58.5 -206.5t-115 -176t-166.5 -121.5q-90 -42 -196 -42h-14q-110 3 -188.5 50 t-126 122.5t-65.5 171.5q-11 59 -11 119q0 37 4 74zM234 516q-4 -34 -4 -69q0 -39 5 -80q9 -76 41 -139t88.5 -104t143.5 -44h13q84 0 153 36q74 39 128 103t87 145t45 163l4 32q4 34 4 70q0 40 -5 80q-9 77 -41 141t-89 106t-144 45h-13q-86 0 -154 -37 q-74 -40 -127.5 -104.5t-86.5 -146.5t-44 -163z" />
<glyph unicode="p" d="M13 -416l260 1498l111 1l-28 -148q65 78 150 123q81 44 181 44h9q73 -2 128 -26t94.5 -64.5t64 -94t37 -113t14.5 -122.5v-23q0 -52 -6 -101l-3 -22q-9 -66 -28 -134t-48.5 -130.5t-70 -116.5t-93 -94t-116.5 -62q-59 -20 -128 -20h-13q-90 2 -168.5 40t-128.5 113 l-99 -548h-119zM251 261q32 -83 99 -131t157 -50h12q55 0 102 16q52 19 93.5 52t74 78t56 96t38.5 106t23 108l3 22q6 46 6 96t-8 98.5t-25 92t-46.5 77t-72 54t-100.5 22.5h-13q-46 0 -86 -12q-47 -15 -87.5 -42t-74 -64t-60.5 -80z" />
<glyph unicode="q" d="M136 401v28q0 48 5 95l3 21q9 67 28.5 135.5t49.5 131t71.5 116.5t94.5 93.5t118 60.5q59 20 130 20h13q91 -2 166 -43.5t122 -119.5l35 143h112l-261 -1498h-119l102 546q-66 -72 -149 -112q-79 -38 -172 -38h-9q-72 2 -127 26.5t-94.5 65t-64.5 94t-38.5 113 t-15.5 122.5zM255 427.5q0 -49.5 7.5 -98t24.5 -93t45.5 -78.5t70.5 -54.5t100 -22.5h14q43 0 83 11q45 13 85 37t74.5 58t62.5 73l94 548q-15 42 -39.5 76.5t-56.5 60t-71 40t-85 16.5h-12q-56 0 -102 -17q-52 -18 -94 -51t-74 -77.5t-56 -96t-39 -106.5t-23 -108l-3 -22 q-6 -46 -6 -95.5z" />
<glyph unicode="r" d="M243 0l188 1082h115l-31 -186l-6 -24q82 111 197 172q111 59 246 59h9q85 0 164 -22l-29 -114q-40 8 -80 13.5t-81 6.5h-7q-68 0 -136 -18q-72 -19 -133 -56.5t-108 -93t-68 -128.5l-117 -691h-123z" />
<glyph unicode="s" d="M137 304h118q2 -60 26.5 -102t64 -68.5t90 -39t104.5 -13.5q48 0 103 9.5t102.5 33t81.5 62.5t41 96q1 11 1 21q1 41 -19 71q-24 37 -65 62t-89.5 40t-89.5 25q-39 10 -81 22t-82.5 29t-76 39t-62.5 52q-26 31 -40 69q-12 32 -13 71q0 8 1 17q3 53 23.5 96t53 77 t74.5 58.5t89 40.5q48 16 96 24q43 7 83 6h11q74 -1 142.5 -21.5t120.5 -60.5q53 -40 83 -100q30 -59 29 -137v-5l-118 1v9q0 49 -20 87q-22 41 -58.5 68.5t-84.5 41.5t-98 15h-8q-42 0 -90 -10q-52 -10 -96.5 -33t-75.5 -61t-37 -92q-1 -11 -2 -21q1 -40 21 -68 q24 -35 64 -57.5t87.5 -35t88.5 -22.5q40 -10 83 -22.5t83.5 -30.5t76.5 -41.5t62 -55t40 -71.5q12 -33 11 -73v-17q-3 -56 -24.5 -101t-55 -79.5t-78 -59.5t-92.5 -41q-48 -15 -100 -22q-45 -6 -88 -6h-12q-74 1 -146 20.5t-128.5 59.5t-91 100.5t-33.5 143.5z" />
<glyph unicode="t" d="M229 984l18 98h291l49 277h121l-49 -277h390l-18 -98h-388l-114 -682q-2 -19 -2 -37q-1 -75 37 -120q46 -56 149 -59h23q37 0 72 4q47 6 94 15l9 -92q-55 -19 -111 -27q-45 -6 -89 -5h-24q-74 1 -129 25t-90.5 66t-50.5 101q-11 42 -11 91q0 20 2 40l113 680h-292z" />
<glyph unicode="u" d="M163 416l112 666h118l-112 -669q-5 -39 -4 -77q1 -19 1 -39q4 -58 24.5 -104.5t62 -76.5t111.5 -32h13q49 0 99 12q58 14 108.5 44t89 73.5t55.5 100.5l130 768h121l-189 -1082h-111l31 169q-69 -91 -161 -141q-87 -48 -194 -48h-13q-92 2 -153 40t-95 99q-33 61 -43 139 q-5 40 -5 80q0 39 4 78z" />
<glyph unicode="v" d="M181 1082h116l222 -920v-22l10 22l504 920h129l-611 -1082h-97z" />
<glyph unicode="w" d="M144 1082h108l20 -729l-3 -185l67 177l306 737h85l51 -737l4 -184l67 194l269 727h114l-421 -1082h-97l-57 745v160l-61 -170l-310 -735h-97z" />
<glyph unicode="x" d="M27 0l507 556l-314 526h133l255 -440l394 440h151l-488 -536l326 -546h-132l-269 459l-414 -459h-149z" />
<glyph unicode="y" d="M-33 -423l26 98q20 -3 41 -6t42 -3q47 0 86.5 17t72.5 45.5t60 65t49 73.5l103 168l-287 1047l124 1l230 -863l9 -59l540 921h140l-758 -1256q-30 -53 -67.5 -101.5t-83.5 -85t-101 -57.5q-53 -21 -115 -21h-6q-26 0 -52.5 4.5t-52.5 11.5z" />
<glyph unicode="z" d="M48 0l16 93l849 886h-689l16 103h852l-16 -93l-853 -888h766l-16 -101h-925z" />
<glyph unicode="{" d="M312 541l5 28h-2l4 27l3 23l5 28q134 3 215.5 71.5t100.5 202.5l28 211q12 91 45 168.5t86.5 138.5t126 102t164.5 59l13 -81q-74 -15 -128.5 -51t-92.5 -87t-61.5 -115t-33.5 -134l-28 -210q-17 -128 -89 -209t-193 -123q51 -21 86 -54.5t56 -76t28.5 -92t2.5 -101.5 l-27 -209q-7 -62 -1.5 -122t28 -111.5t64 -90t107.5 -56.5l-22 -80q-83 17 -142.5 61.5t-96.5 106.5t-50.5 137.5t-5.5 155.5l27 209q13 124 -41 196.5t-181 77.5z" />
<glyph unicode="|" d="M400 -332l280 1788h101l-280 -1788h-101z" />
<glyph unicode="}" d="M176 -325q70 16 124.5 52t94 86.5t63.5 113t35 131.5l28 208q17 128 89 209t192 123q-50 21 -85.5 54.5t-56.5 76t-28.5 91.5t-2.5 102l28 211q7 63 3.5 124t-24 113t-62 91t-109.5 57l24 77q84 -18 142.5 -62.5t93.5 -107t47.5 -138t3.5 -155.5l-27 -211 q-13 -124 41 -195t180 -77l-4 -28l1 -1l-3 -25l-2 -24l-4 -28q-135 -3 -217 -72.5t-101 -204.5l-27 -208q-13 -90 -46.5 -167.5t-87 -137.5t-126 -101t-163.5 -59z" />
<glyph unicode="~" d="M36 468q9 63 33 121t63 102.5t93.5 71t123.5 25.5q43 0 82.5 -12t75 -32t68 -46.5t62.5 -54.5q22 -21 45.5 -41.5t49.5 -37t54.5 -27t60.5 -10.5q48 0 85 20t63 52t43 73t25 83l92 -9q-9 -62 -33 -121t-63 -104t-93.5 -72.5t-123.5 -26.5q-44 0 -83 12t-74 32.5 t-67.5 46.5t-62.5 55q-22 21 -45.5 41.5t-49.5 36t-55 25.5t-61 10q-48 0 -85 -18.5t-63 -49.5t-42.5 -71t-25.5 -82z" />
<glyph unicode="&#xa0;" />
<glyph unicode="&#xa1;" d="M373 -365l177 1019h119l-177 -1019h-119zM583 1020q3 35 28.5 59t60.5 25q18 0 33 -6.5t26 -17.5t16.5 -26.5t4.5 -33.5q-1 -17 -9 -32t-20 -26t-27.5 -18t-32.5 -7q-18 0 -33 6t-26 17.5t-16.5 26.5t-4.5 33z" />
<glyph unicode="&#xa2;" d="M149 517l5 43q13 100 51.5 194t101 169t147.5 123t190 55l39 217h120l-40 -224q67 -13 121.5 -46.5t92.5 -83t57.5 -112.5t16.5 -136l-114 1q3 59 -13.5 110t-49 89t-80.5 60.5t-109 24.5q-92 3 -164 -35.5t-124 -101.5t-83.5 -143t-42.5 -161l-5 -42q-9 -73 -2 -149.5 t36 -139.5t84.5 -104t144.5 -44q61 -2 116 15.5t100 50.5t77.5 80t48.5 106h113q-14 -75 -52.5 -137.5t-94 -108t-124 -72.5t-142.5 -33l-40 -227h-120l41 233q-92 16 -154 67.5t-98.5 124t-48.5 160t-2 177.5z" />
<glyph unicode="&#xa3;" d="M29 0l18 100l90 -1q38 18 63.5 48t41 66t24.5 76t14 79l39 279h-182l18 101h179l38 290q12 90 49.5 170.5t96.5 140.5t138.5 94.5t175.5 32.5q84 -2 147.5 -32.5t105 -82.5t60 -122t12.5 -150h-119q4 58 -6.5 109t-38 89.5t-72 61.5t-107.5 25q-71 2 -127 -26.5 t-96.5 -76t-65.5 -109t-34 -124.5l-39 -290h334l-18 -101h-331l-38 -279q-11 -75 -37 -142.5t-76 -125.5l729 1l-19 -101h-967z" />
<glyph unicode="&#xa4;" d="M4 66l157 143q-32 84 -42 171.5t2 176.5q14 106 58.5 199t113.5 174l-111 163l92 82l107 -152q69 56 148.5 89.5t170.5 31.5q81 -2 154 -33.5t128 -91.5l167 156l72 -94l-170 -157q34 -85 45 -174.5t-2 -180.5q-14 -100 -54.5 -190.5t-104.5 -168.5l108 -156l-93 -82 l-99 142q-71 -62 -154 -99t-179 -35q-85 2 -160 36t-132 98l-150 -140zM231 452.5q3 -53.5 16 -104.5t36.5 -97t58.5 -81t81 -56t104 -23q94 -3 173 40t138 113t96 156.5t48 170.5q10 74 -2 154t-47.5 147.5t-95.5 112t-147 47.5q-94 3 -173 -39.5t-138 -112t-96 -155.5 t-48 -170q-7 -49 -4 -102.5z" />
<glyph unicode="&#xa5;" d="M85 326l15 86h401l37 206h-402l15 87h361l-309 751h128l284 -721l535 721h145l-571 -751h355l-15 -87h-407l-36 -206h408l-16 -86h-407l-57 -326h-119l57 326h-402z" />
<glyph unicode="&#xa6;" d="M374 -270l135 771h119l-134 -771h-120zM542 698l132 758h120l-133 -758h-119z" />
<glyph unicode="&#xa7;" d="M-12 -64l118 2q-6 -76 13.5 -136.5t61 -103.5t101.5 -66.5t135 -24.5q62 -2 126 12.5t118 46.5t91.5 82t45.5 119q5 44 -5.5 79t-32.5 62.5t-53 48t-66 37t-72 29t-71 23.5q-74 24 -148 54t-132.5 75.5t-92.5 110t-27 156.5q5 58 27.5 104t58 81.5t81.5 60.5t98 43 q-69 52 -99.5 123t-23.5 157q5 64 28.5 116.5t61 93t86 70.5t103 49.5t113 28t115.5 7.5q97 -2 174.5 -33t129 -87t76 -135t16.5 -176h-118q6 70 -10.5 129t-53 103t-92 69.5t-127.5 27.5q-63 2 -127.5 -12t-118.5 -46t-91 -82t-45 -120q-8 -69 18 -116t71 -79t102 -53 t111 -38q48 -16 97.5 -33.5t95 -40.5t85.5 -52t68 -67t42 -86t9 -109q-5 -60 -28.5 -106t-60.5 -80.5t-84.5 -59t-99.5 -40.5q146 -105 132 -284q-5 -65 -28.5 -117.5t-60.5 -93.5t-85 -70.5t-102.5 -48.5t-113 -27.5t-116.5 -7.5q-98 2 -179.5 31.5t-138.5 84.5 t-85.5 134.5t-20.5 180.5zM218 545q-6 -49 6 -86.5t36 -66t58 -50t72.5 -38t78.5 -29t77 -24.5q29 -9 56.5 -18.5t55.5 -19.5q48 7 95.5 22.5t87 42t66.5 65.5t34 93q6 47 -6.5 83.5t-38 65.5t-60.5 51t-74 39t-78.5 30t-74.5 24q-32 10 -63.5 20.5t-63.5 21.5 q-48 -8 -93 -24t-80.5 -43.5t-59.5 -66.5t-31 -92z" />
<glyph unicode="&#xa8;" d="M424 1396q1 16 8.5 31t19 26t26 18t31.5 7q34 0 57 -24t20 -58q-2 -33 -27 -56t-58 -24q-34 0 -56.5 23t-20.5 57zM849 1395q1 16 8 31t18.5 26t26.5 18t32 7q34 0 56.5 -24t20.5 -58q-2 -33 -27.5 -56t-57.5 -24q-34 0 -56.5 23t-20.5 57z" />
<glyph unicode="&#xa9;" d="M75 546q11 74 38.5 144t69 132t95 114t117 89t135.5 58t149 21q114 0 202.5 -47t146 -125t81 -178.5t7.5 -207.5q-11 -74 -38.5 -145t-68.5 -134t-94.5 -116t-117 -91t-135.5 -59.5t-150 -21.5q-116 0 -204.5 48.5t-145.5 128t-80 181.5t-7 209zM146 546 q-15 -92 2.5 -181t65.5 -159t123.5 -112.5t176.5 -42.5q102 0 191.5 41t160 110t117 158.5t62.5 185.5q15 92 -3.5 179t-67 155t-124 109.5t-174.5 41.5q-101 0 -190 -40t-159.5 -106.5t-117.5 -154.5t-63 -184zM337 514l10 67q9 55 32.5 108t60 94t85.5 66t110 26 q53 0 93 -16.5t66.5 -46.5t37.5 -72.5t5 -93.5h-77q2 34 -3.5 62.5t-20.5 48.5t-41 31.5t-63 11.5q-45 0 -79.5 -19.5t-59.5 -50.5t-41.5 -70t-23.5 -78l-11 -68q-5 -36 -3 -75t16 -71.5t41.5 -54t72.5 -22.5q38 -1 68 11t52 33t37.5 50.5t24.5 63.5l78 -1q-9 -51 -31 -94 t-55.5 -73.5t-78 -48t-98.5 -17.5q-62 0 -104 27t-66.5 69.5t-32.5 96t-1 106.5z" />
<glyph unicode="&#xaa;" d="M346 908q10 65 45.5 109t85.5 71t109.5 39t116.5 13h156l13 61q6 36 2 68t-19 56t-42 38.5t-66 15.5q-77 2 -136 -33t-84 -108l-106 6q15 57 47 100.5t76.5 72.5t98 44t110.5 15q61 0 107.5 -21.5t75.5 -58t40 -87t3 -109.5l-54 -314q-8 -46 -9 -90.5t5 -90.5l-109 -1 q-6 56 0 111q-50 -55 -113.5 -88.5t-139.5 -35.5q-48 0 -90.5 14.5t-72.5 42.5t-44 68.5t-6 91.5zM452 912q-7 -33 2 -57t28.5 -39.5t46.5 -22.5t56 -7q34 1 68 10.5t65 26t57.5 39.5t45.5 51l26 145h-147q-37 -1 -77 -8.5t-75 -24t-61 -44t-35 -69.5z" />
<glyph unicode="&#xab;" d="M221 510l2 19l348 380h113l-341 -395l198 -382h-95zM546 510l2 19l348 380h113l-341 -395l198 -382h-95z" />
<glyph unicode="&#xac;" d="M203 670l19 106h789l-68 -390h-118l50 284h-672z" />
<glyph unicode="&#xad;" horiz-adv-x="1203" d="M221 601l18 101h722l-19 -101h-721z" />
<glyph unicode="&#xae;" d="M67 397.5q-7 69.5 4 141.5q17 112 69.5 213t132.5 178t182.5 122.5t219.5 45.5q115 0 204 -47t146 -125t80 -178.5t7 -208.5q-17 -111 -69.5 -212.5t-132 -179t-182 -123t-219.5 -45.5q-77 0 -142 21.5t-117.5 60t-91 91t-61.5 114.5t-30 131.5zM141 539 q-15 -93 3.5 -180.5t66.5 -156t124 -110t176 -41.5q101 0 190.5 40t160 107.5t117 156t62.5 184.5q15 92 -3 179.5t-66 156t-123.5 110t-175.5 41.5q-102 0 -191.5 -40t-160 -107t-117.5 -155t-63 -185zM343 234l98 622h197q42 -2 80 -13.5t65.5 -34t41.5 -56.5t7 -81 q-5 -32 -19.5 -57t-35.5 -43.5t-47.5 -32t-54.5 -22.5l101 -282h-79l-90 257h-143l-41 -257h-80zM475 565h129q25 1 49 8t44 19.5t34.5 32t20.5 45.5q6 30 -1.5 51t-24.5 33.5t-41 18.5t-50 8h-126z" />
<glyph unicode="&#xaf;" d="M388 1359l15 97h653l-16 -97h-652z" />
<glyph unicode="&#xb0;" d="M467 1226q7 49 32.5 94.5t63 80t84.5 55t98 20.5q49 0 89 -21.5t66 -57t37 -80.5t4 -91q-8 -49 -32.5 -93.5t-61 -78t-82.5 -54t-96 -20.5t-90.5 20.5t-68 55t-39.5 78.5t-4 92zM555 1168q6 -28 22.5 -49t41 -34t56.5 -13t61.5 12.5t53 33.5t40 49t22.5 59q6 29 1 57.5 t-19.5 51t-38.5 36t-56 13.5q-33 0 -63.5 -12.5t-55 -34.5t-42 -51t-23.5 -60q-6 -30 0 -58z" />
<glyph unicode="&#xb1;" d="M103 -1l19 102h812l-18 -102h-813zM170 728l16 101h401l69 438h111l-69 -438h380l-17 -101h-379l-69 -439h-110l69 439h-402z" />
<glyph unicode="&#xb2;" d="M350 667l14 80l324 278q25 22 52.5 46.5t52 52.5t42 59t21.5 66q3 31 -5 55.5t-25.5 41.5t-42 26.5t-54.5 9.5q-40 0 -72 -11.5t-57 -33t-42 -52t-27 -66.5l-104 -1q9 58 36 104.5t66.5 79.5t91 50.5t110.5 16.5q48 -1 92 -15.5t76.5 -42t50.5 -68t15 -92.5 q-3 -48 -25 -90.5t-54 -79t-69.5 -69t-71.5 -60.5l-242 -198h420l-16 -87h-557z" />
<glyph unicode="&#xb3;" d="M378 886h104q0 -36 12 -62.5t33.5 -44.5t50.5 -27t63 -9t67.5 9t61 27.5t45.5 46.5t22 65q4 39 -9 64t-37 40.5t-55 22t-63 7.5l-80 1l8 81h75q33 1 67.5 9t63 25.5t48.5 44t24 64.5q4 32 -6 56.5t-29.5 40.5t-46 24.5t-55.5 8.5q-69 1 -117.5 -33.5t-68.5 -98.5l-105 -1 q9 54 35.5 96t65.5 69.5t87.5 41.5t102.5 13q48 -1 93 -14.5t79.5 -40t54.5 -66.5t16 -94q-3 -38 -18.5 -67t-39.5 -51.5t-54 -39t-62 -29.5q62 -20 97 -64.5t32 -111.5q-3 -60 -31 -104.5t-70.5 -73.5t-95.5 -43t-107 -13t-101 16t-82 44t-55 72t-20 99z" />
<glyph unicode="&#xb4;" d="M530 1233l221 265h151l-266 -265h-106z" />
<glyph unicode="&#xb5;" d="M22 -416l261 1498h117l-106 -635q-7 -57 -6 -120t19 -117t59 -90t114 -39q60 -2 116 14.5t102.5 48.5t80.5 78.5t50 105.5l130 754h119l-188 -1082h-109l29 162q-58 -86 -139.5 -135t-187.5 -47q-76 2 -141.5 33.5t-106.5 96.5l-95 -526h-118z" />
<glyph unicode="&#xb6;" d="M293 981q10 109 57.5 197t121.5 150t169 95.5t202 33.5l229 -1l-253 -1456h-119l90 520l-93 1q-99 3 -178.5 38t-132.5 96t-78 144t-15 182z" />
<glyph unicode="&#xb7;" d="M537 717q3 34 28.5 58.5t60.5 25.5q17 0 32 -6.5t26 -17.5t16.5 -26.5t4.5 -33.5q-1 -17 -8.5 -32t-19.5 -26t-28 -18t-33 -7q-35 -1 -58 23.5t-21 59.5z" />
<glyph unicode="&#xb8;" d="M291 -437l2 79q31 1 67.5 6.5t68.5 20t55 38.5t28 63q4 32 -9.5 51t-36 29.5t-50 15t-51.5 7.5l43 127h90l-22 -66q63 -14 100.5 -53.5t34.5 -108.5q-3 -62 -34.5 -101.5t-78.5 -62.5t-102 -33t-105 -12z" />
<glyph unicode="&#xb9;" d="M506 1256l17 94l328 105h16l-134 -790h-104l115 660z" />
<glyph unicode="&#xba;" d="M355 1024l20 117q13 69 44.5 129.5t79.5 106t109.5 72.5t134.5 27q72 0 125 -27.5t86.5 -73.5t46.5 -106.5t3 -127.5l-20 -117q-12 -68 -44 -128.5t-79 -106t-109 -72.5t-134 -27t-125.5 27t-87.5 73t-47 106.5t-3 127.5zM459.5 936q5.5 -43 25 -76.5t54 -54t86.5 -20.5 q51 0 93.5 20t74.5 53t53.5 76t31.5 90l21 117q7 44 1.5 87t-25 76.5t-54 54.5t-85.5 21t-93.5 -20t-75 -53t-54 -76.5t-31.5 -89.5l-21 -117q-7 -45 -1.5 -88z" />
<glyph unicode="&#xbb;" d="M155 162l341 394l-197 388h97l223 -382l-2 -20l-348 -380h-114zM490 162l341 394l-197 388h97l223 -382l-2 -20l-348 -380h-114z" />
<glyph unicode="&#xbc;" d="M193 1208l16 85l295 94h14l-120 -711h-94l104 594zM210 232l687 1042l77 -48l-685 -1046zM475 168l4 59l427 483h104l-81 -462h111l-14 -80h-111l-30 -168h-94l30 168h-346zM588 248h246l66 346l-35 -46z" />
<glyph unicode="&#xbd;" d="M169 232l687 1042l77 -48l-685 -1046zM190 1204l16 85l295 94h14l-120 -711h-94l104 594zM502 0l13 72l292 250q22 20 47 42t47 47.5t37.5 53t19.5 59.5q2 28 -5 50t-22.5 37t-38 24t-49.5 9q-36 0 -64.5 -10.5t-51 -30t-38 -47t-24.5 -59.5l-93 -1q8 52 32 94t59.5 71.5 t82 45.5t99.5 15q43 -1 83 -14t69 -38t45.5 -61.5t13.5 -82.5q-3 -44 -22.5 -82t-48.5 -71t-63 -62t-64 -54l-218 -179h378l-14 -78h-502z" />
<glyph unicode="&#xbe;" d="M130 868h94q0 -32 10.5 -56t30 -40t45.5 -24.5t57 -8.5q30 0 60.5 8.5t55 25t41 41.5t19.5 59q4 35 -8 57.5t-33.5 36.5t-49.5 19.5t-56 6.5l-72 1l7 73h67q30 1 61 8t56.5 23t43.5 39.5t22 58.5q4 28 -5 50.5t-27 36.5t-41.5 22t-49.5 8q-62 1 -106 -30.5t-62 -88.5 l-94 -1q8 49 32 86.5t59 62.5t78.5 37.5t92.5 11.5q43 -1 83.5 -13t71.5 -36t49 -60t14 -85q-2 -34 -16 -60t-35.5 -46t-48.5 -35t-56 -27q56 -18 87.5 -58t28.5 -100q-3 -54 -28 -94t-63.5 -66.5t-86 -39t-96.5 -11.5q-48 1 -90.5 14.5t-74 39.5t-49.5 65t-18 89zM279 227 l687 1042l77 -48l-685 -1046zM500 169l4 59l427 483h104l-81 -462h111l-14 -80h-111l-30 -168h-94l30 168h-346zM613 249h246l66 346l-35 -46z" />
<glyph unicode="&#xbf;" d="M120 -23q7 76 37.5 141.5t74.5 122.5t98.5 107t110.5 96q30 25 52 51t37 55.5t25 62.5t17 71l113 1q-8 -54 -21 -97.5t-34 -81t-51 -71.5t-72 -70q-44 -39 -88.5 -81t-81.5 -89t-63 -101t-33 -115q-6 -54 4 -101t36 -82t67.5 -56t98.5 -22q60 -2 108.5 17.5t86 54 t62.5 81.5t38 102l115 1q-13 -81 -48.5 -148t-89.5 -115t-125 -74t-155 -24q-79 2 -141.5 29.5t-104.5 76t-61.5 114.5t-11.5 144zM599 1018q3 34 29 58.5t61 25.5q17 0 32 -6.5t25.5 -17.5t16 -26.5t4.5 -33.5q-1 -17 -8.5 -32t-19.5 -26t-27.5 -18t-32.5 -7 q-35 -1 -58.5 23.5t-21.5 59.5z" />
<glyph unicode="&#xc0;" d="M-10 0l713 1456h107l204 -1456h-115l-54 406h-534l-196 -406h-125zM362 513h469l-101 761zM571 1831h134l131 -266h-95z" />
<glyph unicode="&#xc1;" d="M-10 0l713 1456h107l204 -1456h-115l-54 406h-534l-196 -406h-125zM362 513h469l-101 761zM713 1564l221 265h151l-266 -265h-106z" />
<glyph unicode="&#xc2;" d="M-10 0l713 1456h107l204 -1456h-115l-54 406h-534l-196 -406h-125zM362 513h469l-101 761zM516 1591l2 20l267 239h73l201 -241l-2 -18h-107l-133 172l-192 -171z" />
<glyph unicode="&#xc3;" d="M-10 0l713 1456h107l204 -1456h-115l-54 406h-534l-196 -406h-125zM362 513h469l-101 761zM465 1625q7 40 23.5 77t42 65.5t61 45t79.5 16.5q39 -1 70.5 -19t61.5 -39.5t61 -38.5t69 -16q27 1 47 12t35 28t25 39t16 45l73 -13q-6 -39 -21 -77t-39.5 -67t-59 -47 t-79.5 -18q-39 0 -70.5 18t-61 39.5t-60.5 39t-68 16.5q-27 0 -47.5 -10.5t-35.5 -27t-25 -37.5t-17 -44z" />
<glyph unicode="&#xc4;" d="M-10 0l713 1456h107l204 -1456h-115l-54 406h-534l-196 -406h-125zM362 513h469l-101 761zM505 1729q1 16 8.5 31t19 26t26 18t31.5 7q34 0 57 -24t20 -58q-2 -33 -27 -56t-58 -24q-34 0 -56.5 23t-20.5 57zM930 1728q1 16 8 31t18.5 26t26.5 18t32 7q34 0 56.5 -24 t20.5 -58q-2 -33 -27.5 -56t-57.5 -24q-34 0 -56.5 23t-20.5 57z" />
<glyph unicode="&#xc5;" d="M-10 0l713 1456h107l204 -1456h-115l-54 406h-534l-196 -406h-125zM362 513h469l-101 761zM623 1717q6 37 24.5 70.5t46.5 59t63 41t73 15.5q37 0 67.5 -15.5t51 -41.5t29.5 -59.5t3 -69.5q-6 -37 -24.5 -70t-46 -58t-62 -39.5t-72.5 -14.5t-68.5 15t-51 40t-30 58 t-3.5 69zM698 1676.5q4 -19.5 14.5 -35t27.5 -25t39 -9.5q23 0 44 9t37.5 24.5t28 35.5t16.5 41q4 21 1 41t-13 36t-27 26t-39 10q-23 0 -44.5 -9.5t-39 -25t-29.5 -36t-16 -42.5q-4 -21 0 -40.5z" />
<glyph unicode="&#xc6;" d="M-55 0l789 1456h523l-18 -102h-370l-87 -545h322l-18 -102h-320l-97 -606h382l-18 -101h-490l62 389h-327l-204 -389h-129zM337 502h286l126 783z" />
<glyph unicode="&#xc7;" d="M116.5 479.5q-1.5 73.5 8.5 142.5l34 211q13 75 36.5 152.5t59.5 149.5t83.5 135t108 109.5t134 72.5t160.5 24q100 -2 174 -40.5t123.5 -102t74 -147t25.5 -176.5h-117q-2 68 -18 133t-49.5 116t-87.5 82.5t-131 33.5q-71 2 -129.5 -21t-106 -63.5t-83.5 -94.5 t-63 -114.5t-45 -124t-28 -122.5l-36 -214q-8 -52 -9.5 -111.5t5.5 -118.5t25 -114t50.5 -97.5t81 -69.5t116.5 -29q84 -3 149.5 25.5t115.5 78.5t85.5 117t58.5 139l110 2q-22 -96 -67.5 -181.5t-112 -149t-153.5 -99.5t-192 -33q-84 3 -147.5 32t-109 77.5t-74.5 112 t-43.5 134t-16 144zM326 -441l2 79q31 1 67.5 6.5t68.5 20t55 38.5t28 63q4 32 -9.5 51t-36 29.5t-50 15t-51.5 7.5l43 127h90l-22 -66q63 -14 100.5 -53.5t34.5 -108.5q-3 -62 -34.5 -101.5t-78.5 -62.5t-102 -33t-105 -12z" />
<glyph unicode="&#xc8;" d="M90 0l252 1456h833l-19 -105h-714l-95 -549h623l-18 -104h-623l-103 -594h718l-18 -104h-836zM517 1831h134l131 -266h-95z" />
<glyph unicode="&#xc9;" d="M90 0l252 1456h833l-19 -105h-714l-95 -549h623l-18 -104h-623l-103 -594h718l-18 -104h-836zM659 1564l221 265h151l-266 -265h-106z" />
<glyph unicode="&#xca;" d="M90 0l252 1456h833l-19 -105h-714l-95 -549h623l-18 -104h-623l-103 -594h718l-18 -104h-836zM462 1591l2 20l267 239h73l201 -241l-2 -18h-107l-133 172l-192 -171z" />
<glyph unicode="&#xcb;" d="M90 0l252 1456h833l-19 -105h-714l-95 -549h623l-18 -104h-623l-103 -594h718l-18 -104h-836zM451 1729q1 16 8.5 31t19 26t26 18t31.5 7q34 0 57 -24t20 -58q-2 -33 -27 -56t-58 -24q-34 0 -56.5 23t-20.5 57zM876 1728q1 16 8 31t18.5 26t26.5 18t32 7q34 0 56.5 -24 t20.5 -58q-2 -33 -27.5 -56t-57.5 -24q-34 0 -56.5 23t-20.5 57z" />
<glyph unicode="&#xcc;" d="M82 0l19 106h343l215 1242h-344l20 108h820l-19 -108h-354l-215 -1242h354l-19 -106h-820zM543 1831h134l131 -266h-95z" />
<glyph unicode="&#xcd;" d="M82 0l19 106h343l215 1242h-344l20 108h820l-19 -108h-354l-215 -1242h354l-19 -106h-820zM685 1564l221 265h151l-266 -265h-106z" />
<glyph unicode="&#xce;" d="M82 0l19 106h343l215 1242h-344l20 108h820l-19 -108h-354l-215 -1242h354l-19 -106h-820zM488 1591l2 20l267 239h73l201 -241l-2 -18h-107l-133 172l-192 -171z" />
<glyph unicode="&#xcf;" d="M82 0l19 106h343l215 1242h-344l20 108h820l-19 -108h-354l-215 -1242h354l-19 -106h-820zM477 1729q1 16 8.5 31t19 26t26 18t31.5 7q34 0 57 -24t20 -58q-2 -33 -27 -56t-58 -24q-34 0 -56.5 23t-20.5 57zM902 1728q1 16 8 31t18.5 26t26.5 18t32 7q34 0 56.5 -24 t20.5 -58q-2 -33 -27.5 -56t-57.5 -24q-34 0 -56.5 23t-20.5 57z" />
<glyph unicode="&#xd0;" horiz-adv-x="1232" d="M-28 689l18 102h243l116 665l335 -1q133 -4 229.5 -61.5t155 -149.5t80 -208t5.5 -237l-22 -143q-21 -131 -78 -250t-145 -209t-204.5 -143.5t-257.5 -53.5h-351l119 689h-243zM233 101l217 -1q118 1 213.5 47.5t167 123.5t117.5 177t64 208l23 147q9 63 6.5 128t-17 125 t-42.5 113t-70.5 92.5t-99.5 64t-131 27.5l-230 1l-98 -563h234l-19 -102h-233z" />
<glyph unicode="&#xd1;" d="M51 0l253 1456h114l435 -1229l215 1229h118l-252 -1456h-115l-435 1231l-215 -1231h-118zM448 1625q7 40 23.5 77t42 65.5t61 45t79.5 16.5q39 -1 70.5 -19t61.5 -39.5t61 -38.5t69 -16q27 1 47 12t35 28t25 39t16 45l73 -13q-6 -39 -21 -77t-39.5 -67t-59 -47t-79.5 -18 q-39 0 -70.5 18t-61 39.5t-60.5 39t-68 16.5q-27 0 -47.5 -10.5t-35.5 -27t-25 -37.5t-17 -44z" />
<glyph unicode="&#xd2;" d="M117 489q-1 74 9 142l31 192q12 74 35.5 151.5t58.5 151t82 138t107 112.5t133.5 75t160.5 25q84 -2 147 -32.5t108 -80.5t73 -115t41.5 -137t14 -146t-8.5 -142l-31 -191q-13 -74 -36 -152t-58 -151t-81.5 -137.5t-106.5 -112.5t-133.5 -75t-160.5 -24q-83 2 -146 32.5 t-108 80t-73.5 114.5t-42.5 136.5t-15 145.5zM234 519.5q-2 -59.5 5 -119t25 -115.5t50 -99t80 -70t116 -29q71 -3 129 20.5t105 64.5t82.5 96t62 116t44 125t27.5 122l32 196q7 51 9 110.5t-5 119t-24.5 115t-49.5 98.5t-80 70t-116 29q-71 2 -128.5 -21.5t-104.5 -64.5 t-83 -96t-62.5 -116.5t-44.5 -124.5t-28 -121l-32 -195q-7 -51 -9 -110.5zM573 1852h134l131 -266h-95z" />
<glyph unicode="&#xd3;" d="M117 489q-1 74 9 142l31 192q12 74 35.5 151.5t58.5 151t82 138t107 112.5t133.5 75t160.5 25q84 -2 147 -32.5t108 -80.5t73 -115t41.5 -137t14 -146t-8.5 -142l-31 -191q-13 -74 -36 -152t-58 -151t-81.5 -137.5t-106.5 -112.5t-133.5 -75t-160.5 -24q-83 2 -146 32.5 t-108 80t-73.5 114.5t-42.5 136.5t-15 145.5zM234 519.5q-2 -59.5 5 -119t25 -115.5t50 -99t80 -70t116 -29q71 -3 129 20.5t105 64.5t82.5 96t62 116t44 125t27.5 122l32 196q7 51 9 110.5t-5 119t-24.5 115t-49.5 98.5t-80 70t-116 29q-71 2 -128.5 -21.5t-104.5 -64.5 t-83 -96t-62.5 -116.5t-44.5 -124.5t-28 -121l-32 -195q-7 -51 -9 -110.5zM715 1585l221 265h151l-266 -265h-106z" />
<glyph unicode="&#xd4;" d="M117 489q-1 74 9 142l31 192q12 74 35.5 151.5t58.5 151t82 138t107 112.5t133.5 75t160.5 25q84 -2 147 -32.5t108 -80.5t73 -115t41.5 -137t14 -146t-8.5 -142l-31 -191q-13 -74 -36 -152t-58 -151t-81.5 -137.5t-106.5 -112.5t-133.5 -75t-160.5 -24q-83 2 -146 32.5 t-108 80t-73.5 114.5t-42.5 136.5t-15 145.5zM234 519.5q-2 -59.5 5 -119t25 -115.5t50 -99t80 -70t116 -29q71 -3 129 20.5t105 64.5t82.5 96t62 116t44 125t27.5 122l32 196q7 51 9 110.5t-5 119t-24.5 115t-49.5 98.5t-80 70t-116 29q-71 2 -128.5 -21.5t-104.5 -64.5 t-83 -96t-62.5 -116.5t-44.5 -124.5t-28 -121l-32 -195q-7 -51 -9 -110.5zM518 1612l2 20l267 239h73l201 -241l-2 -18h-107l-133 172l-192 -171z" />
<glyph unicode="&#xd5;" d="M117 489q-1 74 9 142l31 192q12 74 35.5 151.5t58.5 151t82 138t107 112.5t133.5 75t160.5 25q84 -2 147 -32.5t108 -80.5t73 -115t41.5 -137t14 -146t-8.5 -142l-31 -191q-13 -74 -36 -152t-58 -151t-81.5 -137.5t-106.5 -112.5t-133.5 -75t-160.5 -24q-83 2 -146 32.5 t-108 80t-73.5 114.5t-42.5 136.5t-15 145.5zM234 519.5q-2 -59.5 5 -119t25 -115.5t50 -99t80 -70t116 -29q71 -3 129 20.5t105 64.5t82.5 96t62 116t44 125t27.5 122l32 196q7 51 9 110.5t-5 119t-24.5 115t-49.5 98.5t-80 70t-116 29q-71 2 -128.5 -21.5t-104.5 -64.5 t-83 -96t-62.5 -116.5t-44.5 -124.5t-28 -121l-32 -195q-7 -51 -9 -110.5zM467 1646q7 40 23.5 77t42 65.5t61 45t79.5 16.5q39 -1 70.5 -19t61.5 -39.5t61 -38.5t69 -16q27 1 47 12t35 28t25 39t16 45l73 -13q-6 -39 -21 -77t-39.5 -67t-59 -47t-79.5 -18q-39 0 -70.5 18 t-61 39.5t-60.5 39t-68 16.5q-27 0 -47.5 -10.5t-35.5 -27t-25 -37.5t-17 -44z" />
<glyph unicode="&#xd6;" d="M117 489q-1 74 9 142l31 192q12 74 35.5 151.5t58.5 151t82 138t107 112.5t133.5 75t160.5 25q84 -2 147 -32.5t108 -80.5t73 -115t41.5 -137t14 -146t-8.5 -142l-31 -191q-13 -74 -36 -152t-58 -151t-81.5 -137.5t-106.5 -112.5t-133.5 -75t-160.5 -24q-83 2 -146 32.5 t-108 80t-73.5 114.5t-42.5 136.5t-15 145.5zM234 519.5q-2 -59.5 5 -119t25 -115.5t50 -99t80 -70t116 -29q71 -3 129 20.5t105 64.5t82.5 96t62 116t44 125t27.5 122l32 196q7 51 9 110.5t-5 119t-24.5 115t-49.5 98.5t-80 70t-116 29q-71 2 -128.5 -21.5t-104.5 -64.5 t-83 -96t-62.5 -116.5t-44.5 -124.5t-28 -121l-32 -195q-7 -51 -9 -110.5zM507 1750q1 16 8.5 31t19 26t26 18t31.5 7q34 0 57 -24t20 -58q-2 -33 -27 -56t-58 -24q-34 0 -56.5 23t-20.5 57zM932 1749q1 16 8 31t18.5 26t26.5 18t32 7q34 0 56.5 -24t20.5 -58 q-2 -33 -27.5 -56t-57.5 -24q-34 0 -56.5 23t-20.5 57z" />
<glyph unicode="&#xd7;" d="M117 185l411 364l-273 351l86 75l271 -350l394 349l68 -86l-394 -349l286 -366l-86 -74l-285 364l-410 -363z" />
<glyph unicode="&#xd8;" d="M-17 -84l195 262q-26 49 -42 105.5t-23 115.5t-6 118t9 114l31 192q12 74 35.5 151.5t58.5 151t82 138t107 112.5t133.5 75t160.5 25q105 -3 177.5 -49t118.5 -119l147 197h110l-213 -287q17 -46 27 -95.5t14 -100.5t2 -101.5t-8 -97.5l-31 -191q-12 -74 -35.5 -152 t-58.5 -151t-81.5 -137.5t-106.5 -112.5t-133.5 -75t-160.5 -24q-88 2 -152 34t-110 86l-137 -184h-110zM224.5 458.5q2.5 -45.5 9.5 -90.5t21 -86l692 928q-30 67 -86 111.5t-145 47.5q-70 2 -128 -21.5t-105 -64.5t-83 -96t-62.5 -116.5t-44.5 -124.5t-28 -121l-32 -195 q-6 -39 -8.5 -82.5t0 -89zM299 193q32 -47 81 -75.5t120 -30.5q71 -3 129 20.5t105 64.5t82.5 96t62 116t44 125t27.5 122l32 196q8 62 9.5 134.5t-12.5 142.5z" />
<glyph unicode="&#xd9;" d="M131 468l171 988h112l-166 -988q-8 -68 3 -135t42.5 -121.5t85 -89.5t130.5 -38q81 -3 148 29.5t117.5 87.5t83 125t45.5 144l171 986h115l-167 -985q-15 -98 -59 -187.5t-111.5 -158t-156 -108t-193.5 -37.5q-99 2 -173 44.5t-121.5 110.5t-67 154.5t-9.5 178.5z M577 1825h134l131 -266h-95z" />
<glyph unicode="&#xda;" d="M131 468l171 988h112l-166 -988q-8 -68 3 -135t42.5 -121.5t85 -89.5t130.5 -38q81 -3 148 29.5t117.5 87.5t83 125t45.5 144l171 986h115l-167 -985q-15 -98 -59 -187.5t-111.5 -158t-156 -108t-193.5 -37.5q-99 2 -173 44.5t-121.5 110.5t-67 154.5t-9.5 178.5z M719 1558l221 265h151l-266 -265h-106z" />
<glyph unicode="&#xdb;" d="M131 468l171 988h112l-166 -988q-8 -68 3 -135t42.5 -121.5t85 -89.5t130.5 -38q81 -3 148 29.5t117.5 87.5t83 125t45.5 144l171 986h115l-167 -985q-15 -98 -59 -187.5t-111.5 -158t-156 -108t-193.5 -37.5q-99 2 -173 44.5t-121.5 110.5t-67 154.5t-9.5 178.5z M522 1585l2 20l267 239h73l201 -241l-2 -18h-107l-133 172l-192 -171z" />
<glyph unicode="&#xdc;" d="M131 468l171 988h112l-166 -988q-8 -68 3 -135t42.5 -121.5t85 -89.5t130.5 -38q81 -3 148 29.5t117.5 87.5t83 125t45.5 144l171 986h115l-167 -985q-15 -98 -59 -187.5t-111.5 -158t-156 -108t-193.5 -37.5q-99 2 -173 44.5t-121.5 110.5t-67 154.5t-9.5 178.5z M511 1723q1 16 8.5 31t19 26t26 18t31.5 7q34 0 57 -24t20 -58q-2 -33 -27 -56t-58 -24q-34 0 -56.5 23t-20.5 57zM936 1722q1 16 8 31t18.5 26t26.5 18t32 7q34 0 56.5 -24t20.5 -58q-2 -33 -27.5 -56t-57.5 -24q-34 0 -56.5 23t-20.5 57z" />
<glyph unicode="&#xdd;" d="M224 1456h130l236 -791l514 791h141l-615 -915l-96 -541h-112l95 556zM685 1557l221 265h151l-266 -265h-106z" />
<glyph unicode="&#xde;" d="M80 0l253 1456h118l-53 -304l305 -1q89 -3 164.5 -31.5t128.5 -81t80 -126.5t19 -167q-9 -102 -55.5 -181t-117.5 -132.5t-160.5 -81t-186.5 -27.5l-320 1l-57 -324h-118zM272 425l306 -2q73 0 141 21.5t122.5 62.5t90.5 100.5t44 136.5q7 67 -10 122t-54 95t-91 63 t-120 26l-320 1z" />
<glyph unicode="&#xdf;" d="M82 0l191 1116q12 83 43 161.5t82.5 139.5t123.5 97t165 33q64 -2 118.5 -24t93 -61t58 -93.5t13.5 -120.5q-4 -41 -16.5 -78t-30.5 -71.5t-38 -68t-38.5 -68t-33 -70.5t-19.5 -75q-7 -48 7 -90t38 -81t53.5 -76.5t54.5 -78t41 -85t12 -96.5q-6 -75 -37.5 -137 t-82 -105.5t-116.5 -67.5t-140 -23q-75 1 -152.5 20t-137.5 64l44 99q51 -37 112.5 -59t125.5 -23q51 0 97 16.5t82 47.5t59 73.5t29 94.5q6 50 -8.5 92.5t-39 81.5t-55 76.5t-55.5 77t-40 83.5t-10 97q6 59 32 110.5t56 101.5t56 101.5t32 110.5q4 39 -5.5 75t-31 64 t-53.5 45.5t-73 19.5q-70 3 -122 -26t-88 -76.5t-57 -107.5t-30 -119l-191 -1117h-118z" />
<glyph unicode="&#xe0;" d="M111 279q4 69 30 122t67 92t94.5 65.5t112.5 42t120 22.5t119 7l233 -1l18 124q6 59 -10 104.5t-49 77t-80 48.5t-103 19q-55 1 -107 -12t-95 -40.5t-75 -69t-46 -96.5h-117q13 80 57 140t106 100t137 59.5t151 18.5q78 -2 145.5 -26t115.5 -69t72.5 -109.5t16.5 -147.5 l-87 -524q-9 -55 -7 -107t4 -106l-1 -13h-123q-5 39 -3.5 77.5t7.5 78.5q-78 -82 -179 -130t-217 -46q-65 2 -122.5 23t-100 59.5t-65.5 93t-19 123.5zM230 289q-5 -48 10.5 -85t44 -63t68 -40t83.5 -15q61 -2 118 12t107.5 42t93.5 68.5t76 90.5l41 238l-203 1 q-43 0 -90.5 -3.5t-94.5 -13.5t-91 -28t-78.5 -45.5t-57 -66.5t-27.5 -92zM520 1510h134l131 -266h-95z" />
<glyph unicode="&#xe1;" d="M111 279q4 69 30 122t67 92t94.5 65.5t112.5 42t120 22.5t119 7l233 -1l18 124q6 59 -10 104.5t-49 77t-80 48.5t-103 19q-55 1 -107 -12t-95 -40.5t-75 -69t-46 -96.5h-117q13 80 57 140t106 100t137 59.5t151 18.5q78 -2 145.5 -26t115.5 -69t72.5 -109.5t16.5 -147.5 l-87 -524q-9 -55 -7 -107t4 -106l-1 -13h-123q-5 39 -3.5 77.5t7.5 78.5q-78 -82 -179 -130t-217 -46q-65 2 -122.5 23t-100 59.5t-65.5 93t-19 123.5zM230 289q-5 -48 10.5 -85t44 -63t68 -40t83.5 -15q61 -2 118 12t107.5 42t93.5 68.5t76 90.5l41 238l-203 1 q-43 0 -90.5 -3.5t-94.5 -13.5t-91 -28t-78.5 -45.5t-57 -66.5t-27.5 -92zM662 1243l221 265h151l-266 -265h-106z" />
<glyph unicode="&#xe2;" d="M111 279q4 69 30 122t67 92t94.5 65.5t112.5 42t120 22.5t119 7l233 -1l18 124q6 59 -10 104.5t-49 77t-80 48.5t-103 19q-55 1 -107 -12t-95 -40.5t-75 -69t-46 -96.5h-117q13 80 57 140t106 100t137 59.5t151 18.5q78 -2 145.5 -26t115.5 -69t72.5 -109.5t16.5 -147.5 l-87 -524q-9 -55 -7 -107t4 -106l-1 -13h-123q-5 39 -3.5 77.5t7.5 78.5q-78 -82 -179 -130t-217 -46q-65 2 -122.5 23t-100 59.5t-65.5 93t-19 123.5zM230 289q-5 -48 10.5 -85t44 -63t68 -40t83.5 -15q61 -2 118 12t107.5 42t93.5 68.5t76 90.5l41 238l-203 1 q-43 0 -90.5 -3.5t-94.5 -13.5t-91 -28t-78.5 -45.5t-57 -66.5t-27.5 -92zM465 1270l2 20l267 239h73l201 -241l-2 -18h-107l-133 172l-192 -171z" />
<glyph unicode="&#xe3;" d="M111 279q4 69 30 122t67 92t94.5 65.5t112.5 42t120 22.5t119 7l233 -1l18 124q6 59 -10 104.5t-49 77t-80 48.5t-103 19q-55 1 -107 -12t-95 -40.5t-75 -69t-46 -96.5h-117q13 80 57 140t106 100t137 59.5t151 18.5q78 -2 145.5 -26t115.5 -69t72.5 -109.5t16.5 -147.5 l-87 -524q-9 -55 -7 -107t4 -106l-1 -13h-123q-5 39 -3.5 77.5t7.5 78.5q-78 -82 -179 -130t-217 -46q-65 2 -122.5 23t-100 59.5t-65.5 93t-19 123.5zM230 289q-5 -48 10.5 -85t44 -63t68 -40t83.5 -15q61 -2 118 12t107.5 42t93.5 68.5t76 90.5l41 238l-203 1 q-43 0 -90.5 -3.5t-94.5 -13.5t-91 -28t-78.5 -45.5t-57 -66.5t-27.5 -92zM414 1304q7 40 23.5 77t42 65.5t61 45t79.5 16.5q39 -1 70.5 -19t61.5 -39.5t61 -38.5t69 -16q27 1 47 12t35 28t25 39t16 45l73 -13q-6 -39 -21 -77t-39.5 -67t-59 -47t-79.5 -18q-39 0 -70.5 18 t-61 39.5t-60.5 39t-68 16.5q-27 0 -47.5 -10.5t-35.5 -27t-25 -37.5t-17 -44z" />
<glyph unicode="&#xe4;" d="M111 279q4 69 30 122t67 92t94.5 65.5t112.5 42t120 22.5t119 7l233 -1l18 124q6 59 -10 104.5t-49 77t-80 48.5t-103 19q-55 1 -107 -12t-95 -40.5t-75 -69t-46 -96.5h-117q13 80 57 140t106 100t137 59.5t151 18.5q78 -2 145.5 -26t115.5 -69t72.5 -109.5t16.5 -147.5 l-87 -524q-9 -55 -7 -107t4 -106l-1 -13h-123q-5 39 -3.5 77.5t7.5 78.5q-78 -82 -179 -130t-217 -46q-65 2 -122.5 23t-100 59.5t-65.5 93t-19 123.5zM230 289q-5 -48 10.5 -85t44 -63t68 -40t83.5 -15q61 -2 118 12t107.5 42t93.5 68.5t76 90.5l41 238l-203 1 q-43 0 -90.5 -3.5t-94.5 -13.5t-91 -28t-78.5 -45.5t-57 -66.5t-27.5 -92zM454 1408q1 16 8.5 31t19 26t26 18t31.5 7q34 0 57 -24t20 -58q-2 -33 -27 -56t-58 -24q-34 0 -56.5 23t-20.5 57zM879 1407q1 16 8 31t18.5 26t26.5 18t32 7q34 0 56.5 -24t20.5 -58 q-2 -33 -27.5 -56t-57.5 -24q-34 0 -56.5 23t-20.5 57z" />
<glyph unicode="&#xe5;" d="M111 279q4 69 30 122t67 92t94.5 65.5t112.5 42t120 22.5t119 7l233 -1l18 124q6 59 -10 104.5t-49 77t-80 48.5t-103 19q-55 1 -107 -12t-95 -40.5t-75 -69t-46 -96.5h-117q13 80 57 140t106 100t137 59.5t151 18.5q78 -2 145.5 -26t115.5 -69t72.5 -109.5t16.5 -147.5 l-87 -524q-9 -55 -7 -107t4 -106l-1 -13h-123q-5 39 -3.5 77.5t7.5 78.5q-78 -82 -179 -130t-217 -46q-65 2 -122.5 23t-100 59.5t-65.5 93t-19 123.5zM230 289q-5 -48 10.5 -85t44 -63t68 -40t83.5 -15q61 -2 118 12t107.5 42t93.5 68.5t76 90.5l41 238l-203 1 q-43 0 -90.5 -3.5t-94.5 -13.5t-91 -28t-78.5 -45.5t-57 -66.5t-27.5 -92zM572 1396q6 37 24.5 70.5t46.5 59t63 41t73 15.5q37 0 67.5 -15.5t51 -41.5t29.5 -59.5t3 -69.5q-6 -37 -24.5 -70t-46 -58t-62 -39.5t-72.5 -14.5t-68.5 15t-51 40t-30 58t-3.5 69zM647 1355.5 q4 -19.5 14.5 -35t27.5 -25t39 -9.5q23 0 44 9t37.5 24.5t28 35.5t16.5 41q4 21 1 41t-13 36t-27 26t-39 10q-23 0 -44.5 -9.5t-39 -25t-29.5 -36t-16 -42.5q-4 -21 0 -40.5z" />
<glyph unicode="&#xe6;" d="M-9 276q6 83 38.5 149.5t86 112.5t124 71t152.5 25l133 -2l25 171q4 38 0 73t-18.5 62.5t-42 44.5t-71.5 18t-78.5 -13t-60.5 -39.5t-42.5 -60.5t-23.5 -75l-113 4q8 66 35 119t69.5 90.5t99.5 57.5t124 19q38 -1 74 -9.5t66 -25.5t53 -44.5t35 -65.5q49 64 113.5 104.5 t148.5 39.5q78 -2 129.5 -35.5t81 -87t38.5 -120t1 -133.5l-29 -188h-514l-21 -134q-7 -55 -3 -111.5t25 -103t61.5 -76.5t108.5 -31q33 0 63 7.5t57.5 21t53.5 31.5t51 38l27 -88q-54 -57 -125.5 -85t-150.5 -26q-44 1 -84 12t-74 32.5t-59.5 53t-40.5 73.5 q-26 -37 -57 -69t-67.5 -55t-78.5 -36t-89 -12q-63 1 -108 26t-73.5 66t-41 94t-8.5 110zM109 272q-3 -36 2.5 -70.5t22 -61.5t44 -44t67.5 -17q32 0 61.5 10t56 27t49 39t41.5 46l57 335l-119 2q-57 -1 -106 -21.5t-86.5 -56t-60.5 -83.5t-29 -105zM636 636h408l14 110 q4 41 -0.5 85.5t-21.5 82t-48.5 62t-81.5 25.5q-65 2 -111 -30t-77 -81.5t-49 -108.5t-27 -111z" />
<glyph unicode="&#xe7;" d="M141.5 387q-4.5 65 2.5 130l5 43q9 70 31 138t56 129t80 112.5t102.5 88t123.5 56.5t144 18q83 -2 150.5 -31.5t115 -81t72.5 -121.5t22 -152l-114 1q3 59 -13.5 110t-49 89t-80.5 60.5t-109 24.5q-92 3 -164 -35.5t-124 -101.5t-83.5 -143t-42.5 -161l-5 -42 q-9 -73 -2 -149.5t36 -139.5t84.5 -104t144.5 -44q61 -2 116 15.5t100 50.5t77.5 80t48.5 106h113q-15 -81 -58.5 -147t-105.5 -112.5t-139 -71t-158 -22.5q-74 2 -133 24t-103 60t-73.5 89t-46 110t-21 124zM344 -441l2 79q31 1 67.5 6.5t68.5 20t55 38.5t28 63 q4 32 -9.5 51t-36 29.5t-50 15t-51.5 7.5l43 127h90l-22 -66q63 -14 100.5 -53.5t34.5 -108.5q-3 -62 -34.5 -101.5t-78.5 -62.5t-102 -33t-105 -12z" />
<glyph unicode="&#xe8;" d="M131 507l5 44q9 69 32.5 137t59.5 130t84 115t106.5 91t126.5 59t143 19q103 -3 176 -46t117.5 -112t61 -157t6.5 -181l-9 -73h-786l-5 -24q-11 -76 2.5 -151t51.5 -135.5t99.5 -99t145.5 -41.5q99 -4 181.5 36t151.5 108l71 -57q-78 -94 -185 -142.5t-228 -46.5 q-109 3 -190 48t-132.5 118t-73.5 167t-12 194zM269 635l663 -1l3 15q9 64 -3 126t-44.5 111.5t-84.5 80.5t-121 33q-81 3 -147 -28t-117.5 -82.5t-88.5 -118.5t-60 -136zM512 1510h134l131 -266h-95z" />
<glyph unicode="&#xe9;" d="M131 507l5 44q9 69 32.5 137t59.5 130t84 115t106.5 91t126.5 59t143 19q103 -3 176 -46t117.5 -112t61 -157t6.5 -181l-9 -73h-786l-5 -24q-11 -76 2.5 -151t51.5 -135.5t99.5 -99t145.5 -41.5q99 -4 181.5 36t151.5 108l71 -57q-78 -94 -185 -142.5t-228 -46.5 q-109 3 -190 48t-132.5 118t-73.5 167t-12 194zM269 635l663 -1l3 15q9 64 -3 126t-44.5 111.5t-84.5 80.5t-121 33q-81 3 -147 -28t-117.5 -82.5t-88.5 -118.5t-60 -136zM654 1243l221 265h151l-266 -265h-106z" />
<glyph unicode="&#xea;" d="M131 507l5 44q9 69 32.5 137t59.5 130t84 115t106.5 91t126.5 59t143 19q103 -3 176 -46t117.5 -112t61 -157t6.5 -181l-9 -73h-786l-5 -24q-11 -76 2.5 -151t51.5 -135.5t99.5 -99t145.5 -41.5q99 -4 181.5 36t151.5 108l71 -57q-78 -94 -185 -142.5t-228 -46.5 q-109 3 -190 48t-132.5 118t-73.5 167t-12 194zM269 635l663 -1l3 15q9 64 -3 126t-44.5 111.5t-84.5 80.5t-121 33q-81 3 -147 -28t-117.5 -82.5t-88.5 -118.5t-60 -136zM457 1270l2 20l267 239h73l201 -241l-2 -18h-107l-133 172l-192 -171z" />
<glyph unicode="&#xeb;" d="M131 507l5 44q9 69 32.5 137t59.5 130t84 115t106.5 91t126.5 59t143 19q103 -3 176 -46t117.5 -112t61 -157t6.5 -181l-9 -73h-786l-5 -24q-11 -76 2.5 -151t51.5 -135.5t99.5 -99t145.5 -41.5q99 -4 181.5 36t151.5 108l71 -57q-78 -94 -185 -142.5t-228 -46.5 q-109 3 -190 48t-132.5 118t-73.5 167t-12 194zM269 635l663 -1l3 15q9 64 -3 126t-44.5 111.5t-84.5 80.5t-121 33q-81 3 -147 -28t-117.5 -82.5t-88.5 -118.5t-60 -136zM446 1408q1 16 8.5 31t19 26t26 18t31.5 7q34 0 57 -24t20 -58q-2 -33 -27 -56t-58 -24 q-34 0 -56.5 23t-20.5 57zM871 1407q1 16 8 31t18.5 26t26.5 18t32 7q34 0 56.5 -24t20.5 -58q-2 -33 -27.5 -56t-57.5 -24q-34 0 -56.5 23t-20.5 57z" />
<glyph unicode="&#xec;" d="M109 0l19 106h370l151 869h-371l19 107h490l-170 -976h358l-19 -106h-847zM550 1520h134l131 -266h-95z" />
<glyph unicode="&#xed;" d="M109 0l19 106h370l151 869h-371l19 107h490l-170 -976h358l-19 -106h-847zM692 1253l221 265h151l-266 -265h-106z" />
<glyph unicode="&#xee;" d="M109 0l19 106h370l151 869h-371l19 107h490l-170 -976h358l-19 -106h-847zM495 1280l2 20l267 239h73l201 -241l-2 -18h-107l-133 172l-192 -171z" />
<glyph unicode="&#xef;" d="M109 0l19 106h370l151 869h-371l19 107h490l-170 -976h358l-19 -106h-847zM484 1418q1 16 8.5 31t19 26t26 18t31.5 7q34 0 57 -24t20 -58q-2 -33 -27 -56t-58 -24q-34 0 -56.5 23t-20.5 57zM909 1417q1 16 8 31t18.5 26t26.5 18t32 7q34 0 56.5 -24t20.5 -58 q-2 -33 -27.5 -56t-57.5 -24q-34 0 -56.5 23t-20.5 57z" />
<glyph unicode="&#xf0;" d="M60 458q11 107 55.5 200.5t115.5 162.5t165 108t205 36q89 -2 170 -39t135 -109q2 112 -27.5 218t-93.5 199l-269 -139l-40 80l244 124q-52 51 -114 86.5t-129 61.5l49 102q86 -32 163 -78.5t143 -111.5l244 125l41 -79l-224 -114q46 -77 75 -158t42.5 -165t13.5 -170.5 t-12 -174.5l-10 -71q-16 -108 -61 -212t-116.5 -185t-168.5 -129.5t-217 -45.5q-97 2 -172 43t-124 107t-70.5 151.5t-12.5 176.5zM180 458q-8 -68 5.5 -134t47 -119t88 -86.5t129.5 -35.5q96 -3 171 38.5t128.5 109.5t86 152.5t44.5 168.5l10 74l6 62q-18 45 -50.5 78 t-73 54t-86.5 31t-92 11q-86 2 -158 -30.5t-126 -88.5t-87.5 -130t-42.5 -155z" />
<glyph unicode="&#xf1;" d="M82 0l188 1082h110l-34 -203q34 49 75.5 90.5t90.5 71.5t104.5 46t117.5 15q88 -2 149 -36.5t96 -90.5t47 -129t3 -153l-116 -693h-119l116 692q7 60 0.5 114.5t-30.5 96.5t-68.5 67.5t-112.5 27.5q-62 1 -116.5 -18.5t-101 -53t-84.5 -78.5t-66 -96l-130 -752h-119z M387 1303q7 40 23.5 77t42 65.5t61 45t79.5 16.5q39 -1 70.5 -19t61.5 -39.5t61 -38.5t69 -16q27 1 47 12t35 28t25 39t16 45l73 -13q-6 -39 -21 -77t-39.5 -67t-59 -47t-79.5 -18q-39 0 -70.5 18t-61 39.5t-60.5 39t-68 16.5q-27 0 -47.5 -10.5t-35.5 -27t-25 -37.5 t-17 -44z" />
<glyph unicode="&#xf2;" d="M115 517l4 33q9 71 32 140t58 131t82.5 114.5t105.5 90t126 58t146 18.5q74 -2 133.5 -24.5t105 -60.5t77 -90t49.5 -111.5t23.5 -124.5t-1.5 -131l-4 -34q-14 -107 -58.5 -206.5t-115 -176t-166 -121.5t-210.5 -42q-110 3 -188.5 50t-126 122.5t-65.5 171t-7 193.5z M234 516q-8 -73 1 -149t41 -139t88.5 -104t143.5 -44q92 -3 166 36t128 103t87 145t45 163l4 32q8 73 -1 150t-41 141t-89 106t-144 45q-93 3 -166.5 -37t-127.5 -104.5t-87 -146.5t-44 -163zM502 1509h134l131 -266h-95z" />
<glyph unicode="&#xf3;" d="M115 517l4 33q9 71 32 140t58 131t82.5 114.5t105.5 90t126 58t146 18.5q74 -2 133.5 -24.5t105 -60.5t77 -90t49.5 -111.5t23.5 -124.5t-1.5 -131l-4 -34q-14 -107 -58.5 -206.5t-115 -176t-166 -121.5t-210.5 -42q-110 3 -188.5 50t-126 122.5t-65.5 171t-7 193.5z M234 516q-8 -73 1 -149t41 -139t88.5 -104t143.5 -44q92 -3 166 36t128 103t87 145t45 163l4 32q8 73 -1 150t-41 141t-89 106t-144 45q-93 3 -166.5 -37t-127.5 -104.5t-87 -146.5t-44 -163zM644 1242l221 265h151l-266 -265h-106z" />
<glyph unicode="&#xf4;" d="M115 517l4 33q9 71 32 140t58 131t82.5 114.5t105.5 90t126 58t146 18.5q74 -2 133.5 -24.5t105 -60.5t77 -90t49.5 -111.5t23.5 -124.5t-1.5 -131l-4 -34q-14 -107 -58.5 -206.5t-115 -176t-166 -121.5t-210.5 -42q-110 3 -188.5 50t-126 122.5t-65.5 171t-7 193.5z M234 516q-8 -73 1 -149t41 -139t88.5 -104t143.5 -44q92 -3 166 36t128 103t87 145t45 163l4 32q8 73 -1 150t-41 141t-89 106t-144 45q-93 3 -166.5 -37t-127.5 -104.5t-87 -146.5t-44 -163zM447 1269l2 20l267 239h73l201 -241l-2 -18h-107l-133 172l-192 -171z" />
<glyph unicode="&#xf5;" d="M115 517l4 33q9 71 32 140t58 131t82.5 114.5t105.5 90t126 58t146 18.5q74 -2 133.5 -24.5t105 -60.5t77 -90t49.5 -111.5t23.5 -124.5t-1.5 -131l-4 -34q-14 -107 -58.5 -206.5t-115 -176t-166 -121.5t-210.5 -42q-110 3 -188.5 50t-126 122.5t-65.5 171t-7 193.5z M234 516q-8 -73 1 -149t41 -139t88.5 -104t143.5 -44q92 -3 166 36t128 103t87 145t45 163l4 32q8 73 -1 150t-41 141t-89 106t-144 45q-93 3 -166.5 -37t-127.5 -104.5t-87 -146.5t-44 -163zM396 1303q7 40 23.5 77t42 65.5t61 45t79.5 16.5q39 -1 70.5 -19t61.5 -39.5 t61 -38.5t69 -16q27 1 47 12t35 28t25 39t16 45l73 -13q-6 -39 -21 -77t-39.5 -67t-59 -47t-79.5 -18q-39 0 -70.5 18t-61 39.5t-60.5 39t-68 16.5q-27 0 -47.5 -10.5t-35.5 -27t-25 -37.5t-17 -44z" />
<glyph unicode="&#xf6;" d="M115 517l4 33q9 71 32 140t58 131t82.5 114.5t105.5 90t126 58t146 18.5q74 -2 133.5 -24.5t105 -60.5t77 -90t49.5 -111.5t23.5 -124.5t-1.5 -131l-4 -34q-14 -107 -58.5 -206.5t-115 -176t-166 -121.5t-210.5 -42q-110 3 -188.5 50t-126 122.5t-65.5 171t-7 193.5z M234 516q-8 -73 1 -149t41 -139t88.5 -104t143.5 -44q92 -3 166 36t128 103t87 145t45 163l4 32q8 73 -1 150t-41 141t-89 106t-144 45q-93 3 -166.5 -37t-127.5 -104.5t-87 -146.5t-44 -163zM436 1407q1 16 8.5 31t19 26t26 18t31.5 7q34 0 57 -24t20 -58q-2 -33 -27 -56 t-58 -24q-34 0 -56.5 23t-20.5 57zM861 1406q1 16 8 31t18.5 26t26.5 18t32 7q34 0 56.5 -24t20.5 -58q-2 -33 -27.5 -56t-57.5 -24q-34 0 -56.5 23t-20.5 57z" />
<glyph unicode="&#xf7;" d="M118 644l20 116h971l-20 -116h-971zM468 292q1 16 8.5 30.5t19 25.5t26 18t31.5 7q34 1 56.5 -23t20.5 -58q-1 -17 -8.5 -31.5t-19 -25.5t-27 -17.5t-31.5 -6.5q-34 -1 -56.5 23t-19.5 58zM606 1087q3 33 27.5 57t58.5 25q17 0 31.5 -6t25 -17.5t16 -26.5t4.5 -32 q-3 -33 -28.5 -56t-57.5 -24q-34 -1 -56.5 22.5t-20.5 57.5z" />
<glyph unicode="&#xf8;" d="M77 -139l153 235q-36 39 -60.5 87.5t-39 103t-18 113t2.5 117.5l4 33q9 71 32 140t58 131t82.5 114.5t105.5 90t126 58t146 18.5q54 -2 100 -14t85 -34l103 159h93l-133 -205q43 -39 72.5 -90t46.5 -109.5t22 -121.5t-2 -127l-4 -34q-14 -107 -58.5 -206.5t-115 -176 t-166 -121.5t-210.5 -42q-63 2 -114 17.5t-93 43.5l-116 -180h-102zM230 432q1 -43 8 -84.5t21 -80.5t36 -72l500 768q-27 17 -60 26.5t-72 11.5q-93 3 -166.5 -37t-127.5 -104.5t-87 -146.5t-44 -163l-4 -34q-5 -41 -4 -84zM353 132q30 -23 68.5 -36.5t86.5 -15.5 q92 -3 166 36t128 103t87 145t45 163l4 32q5 46 3.5 94t-11.5 94.5t-28.5 88.5t-46.5 75z" />
<glyph unicode="&#xf9;" d="M163 416l112 666h118l-112 -669q-7 -58 -3.5 -116t24.5 -104.5t62.5 -76.5t111.5 -32q55 -2 112.5 12.5t108 44t89 73t55.5 100.5l130 768h121l-189 -1082h-111l31 169q-68 -91 -160.5 -141.5t-207.5 -47.5q-92 2 -153 40t-95 99t-43.5 138.5t-0.5 158.5zM484 1501h134 l131 -266h-95z" />
<glyph unicode="&#xfa;" d="M163 416l112 666h118l-112 -669q-7 -58 -3.5 -116t24.5 -104.5t62.5 -76.5t111.5 -32q55 -2 112.5 12.5t108 44t89 73t55.5 100.5l130 768h121l-189 -1082h-111l31 169q-68 -91 -160.5 -141.5t-207.5 -47.5q-92 2 -153 40t-95 99t-43.5 138.5t-0.5 158.5zM626 1234 l221 265h151l-266 -265h-106z" />
<glyph unicode="&#xfb;" d="M163 416l112 666h118l-112 -669q-7 -58 -3.5 -116t24.5 -104.5t62.5 -76.5t111.5 -32q55 -2 112.5 12.5t108 44t89 73t55.5 100.5l130 768h121l-189 -1082h-111l31 169q-68 -91 -160.5 -141.5t-207.5 -47.5q-92 2 -153 40t-95 99t-43.5 138.5t-0.5 158.5zM429 1261l2 20 l267 239h73l201 -241l-2 -18h-107l-133 172l-192 -171z" />
<glyph unicode="&#xfc;" d="M163 416l112 666h118l-112 -669q-7 -58 -3.5 -116t24.5 -104.5t62.5 -76.5t111.5 -32q55 -2 112.5 12.5t108 44t89 73t55.5 100.5l130 768h121l-189 -1082h-111l31 169q-68 -91 -160.5 -141.5t-207.5 -47.5q-92 2 -153 40t-95 99t-43.5 138.5t-0.5 158.5zM419 1399 q1 16 8.5 31t19 26t26 18t31.5 7q34 0 57 -24t20 -58q-2 -33 -27 -56t-58 -24q-34 0 -56.5 23t-20.5 57zM844 1398q1 16 8 31t18.5 26t26.5 18t32 7q34 0 56.5 -24t20.5 -58q-2 -33 -27.5 -56t-57.5 -24q-34 0 -56.5 23t-20.5 57z" />
<glyph unicode="&#xfd;" d="M-33 -423l26 98q20 -3 41 -6t42 -3q47 0 86.5 17t72.5 45.5t60 65t49 73.5l103 168l-287 1047l124 1l230 -863l9 -59l540 921h140l-758 -1256q-30 -53 -67.5 -101.5t-83.5 -85t-101 -58t-121 -20.5q-26 0 -52.5 4.5t-52.5 11.5zM658 1234l221 265h151l-266 -265h-106z " />
<glyph unicode="&#xfe;" d="M13 -416l340 1962h120l-114 -613q67 81 155 126.5t195 42.5q72 -2 126 -27t91.5 -66t61 -94.5t34.5 -113.5t12 -122.5t-6 -121.5l-2 -22q-9 -65 -27.5 -131.5t-47 -129t-68 -117t-90.5 -95t-114 -63t-139 -20.5q-93 2 -174.5 41.5t-133.5 117.5l-100 -554h-119zM251 264 q34 -85 105.5 -133.5t163.5 -50.5t159.5 39.5t114 108.5t74 148.5t38.5 159.5l3 21q5 44 6 93.5t-6 98t-22.5 93t-43.5 78.5t-69 55t-98 23q-55 2 -103.5 -13t-90.5 -42t-77.5 -64.5t-63.5 -81.5z" />
<glyph unicode="&#xff;" d="M-33 -423l26 98q20 -3 41 -6t42 -3q47 0 86.5 17t72.5 45.5t60 65t49 73.5l103 168l-287 1047l124 1l230 -863l9 -59l540 921h140l-758 -1256q-30 -53 -67.5 -101.5t-83.5 -85t-101 -58t-121 -20.5q-26 0 -52.5 4.5t-52.5 11.5zM450 1399q1 16 8.5 31t19 26t26 18t31.5 7 q34 0 57 -24t20 -58q-2 -33 -27 -56t-58 -24q-34 0 -56.5 23t-20.5 57zM875 1398q1 16 8 31t18.5 26t26.5 18t32 7q34 0 56.5 -24t20.5 -58q-2 -33 -27.5 -56t-57.5 -24q-34 0 -56.5 23t-20.5 57z" />
<glyph unicode="&#x152;" d="M56 418q0 63 8 122l62 375q11 66 30 133t47.5 128.5t67.5 115t90 93.5t113.5 63t139.5 24q60 1 119 -5.5t119 -10.5h449l-19 -102h-426l-96 -553h370l-18 -102h-369l-104 -598h432l-18 -101h-438q-60 -3 -118.5 -9t-118.5 -4q-72 3 -125.5 28.5t-91 67.5t-60.5 96.5 t-34 115t-11 123.5zM174 350q3 -49 15 -94.5t36.5 -81.5t63 -59t95.5 -26q33 -2 66.5 -1.5t67.5 2.5l225 1275q-34 3 -67 5t-67 2q-61 0 -110 -20t-86.5 -53.5t-65.5 -78t-48 -95t-33.5 -104t-21.5 -104.5l-61 -378q-6 -43 -9 -91.5t0 -97.5z" />
<glyph unicode="&#x153;" d="M-4 350q0 53 6 101l26 178q8 53 23 109t38 109t54.5 100.5t72.5 82.5t92.5 54.5t115.5 18.5q91 -3 155 -54t90 -137q24 38 52 73t62.5 61.5t75 42t89.5 14.5q82 -2 133 -41.5t77.5 -100t32.5 -133t-2 -138.5l-27 -163h-487l-14 -92q-4 -29 -6 -65.5t0.5 -75.5t11 -76 t25.5 -66.5t44.5 -48.5t68.5 -20q63 -2 117 24t102 63l34 -84q-54 -51 -119.5 -79t-140.5 -26q-89 2 -151.5 52t-88.5 133q-26 -40 -56 -74.5t-66.5 -60t-79.5 -39.5t-94 -13q-61 2 -105.5 24t-75.5 58.5t-49.5 84t-27 99.5t-8.5 105zM114.5 300.5q2.5 -40.5 11 -79.5 t26.5 -70t47.5 -50.5t73.5 -20.5q46 -2 82 15.5t64 46.5t48 68t34 80.5t23 83t14 77.5l27 180q4 30 6.5 69t0 79.5t-11 80t-27 70.5t-48 50.5t-72.5 20.5q-46 1 -82 -16t-64 -46t-48 -68t-34 -80.5t-23 -83.5t-14 -77l-27 -181q-4 -30 -6.5 -69t0 -79.5zM687 626l377 2 l11 84q5 39 4 88.5t-15 93.5t-44 74.5t-83 32.5q-44 1 -77 -16.5t-58.5 -47t-43.5 -68.5t-31 -79.5t-21.5 -80t-15.5 -71.5z" />
<glyph unicode="&#x178;" d="M224 1456h130l236 -791l514 791h141l-615 -915l-96 -541h-112l95 556zM477 1722q1 16 8.5 31t19 26t26 18t31.5 7q34 0 57 -24t20 -58q-2 -33 -27 -56t-58 -24q-34 0 -56.5 23t-20.5 57zM902 1721q1 16 8 31t18.5 26t26.5 18t32 7q34 0 56.5 -24t20.5 -58 q-2 -33 -27.5 -56t-57.5 -24q-34 0 -56.5 23t-20.5 57z" />
<glyph unicode="&#x2c6;" d="M395 1258l2 20l267 239h73l201 -241l-2 -18h-107l-133 172l-192 -171z" />
<glyph unicode="&#x2dc;" d="M246 1282q7 40 23.5 77t42 65.5t61 45t79.5 16.5q39 -1 70.5 -19t61.5 -39.5t61 -38.5t69 -16q27 1 47 12t35 28t25 39t16 45l73 -13q-6 -39 -21 -77t-39.5 -67t-59 -47t-79.5 -18q-39 0 -70.5 18t-61 39.5t-60.5 39t-68 16.5q-27 0 -47.5 -10.5t-35.5 -27t-25 -37.5 t-17 -44z" />
<glyph unicode="&#x2000;" horiz-adv-x="951" />
<glyph unicode="&#x2001;" horiz-adv-x="1903" />
<glyph unicode="&#x2002;" horiz-adv-x="951" />
<glyph unicode="&#x2003;" horiz-adv-x="1903" />
<glyph unicode="&#x2004;" horiz-adv-x="634" />
<glyph unicode="&#x2005;" horiz-adv-x="475" />
<glyph unicode="&#x2006;" horiz-adv-x="317" />
<glyph unicode="&#x2007;" horiz-adv-x="317" />
<glyph unicode="&#x2008;" horiz-adv-x="237" />
<glyph unicode="&#x2009;" horiz-adv-x="380" />
<glyph unicode="&#x200a;" horiz-adv-x="105" />
<glyph unicode="&#x2010;" horiz-adv-x="1203" d="M221 601l18 101h722l-19 -101h-721z" />
<glyph unicode="&#x2011;" horiz-adv-x="1203" d="M221 601l18 101h722l-19 -101h-721z" />
<glyph unicode="&#x2012;" horiz-adv-x="1203" d="M221 601l18 101h722l-19 -101h-721z" />
<glyph unicode="&#x2013;" d="M49 686l25 102h1055l-23 -102h-1057z" />
<glyph unicode="&#x2014;" d="M60 686l25 102h1055l-23 -102h-1057z" />
<glyph unicode="&#x2018;" d="M597 1105l20 123q17 99 65.5 182.5t123.5 148.5l65 -53q-51 -61 -86 -128.5t-49 -145.5l-23 -127h-116z" />
<glyph unicode="&#x2019;" d="M573 1146q51 61 86 128.5t49 145.5l22 126h117l-19 -123q-16 -99 -64 -183t-122 -150z" />
<glyph unicode="&#x201a;" d="M325 -187q51 61 86 128t49 145l25 140h119l-23 -137q-17 -99 -65.5 -182t-123.5 -148z" />
<glyph unicode="&#x201c;" d="M440 1105l20 123q17 99 65.5 182.5t123.5 148.5l65 -53q-51 -61 -86 -128.5t-49 -145.5l-23 -127h-116zM741 1105l20 123q17 99 65.5 182.5t123.5 148.5l65 -53q-51 -61 -86 -128.5t-49 -145.5l-23 -127h-116z" />
<glyph unicode="&#x201d;" d="M450 1146q51 61 86 128.5t49 145.5l22 126h117l-19 -123q-16 -99 -64 -183t-122 -150zM751 1146q51 61 86 128.5t49 145.5l22 126h117l-19 -123q-16 -99 -64 -183t-122 -150z" />
<glyph unicode="&#x201e;" d="M198 -187q50 61 85 127.5t49 144.5l24 140h118l-21 -137q-15 -97 -61.5 -181.5t-118.5 -150.5zM438 -188q50 61 85.5 128t49.5 145l25 140h118l-22 -136q-16 -99 -65 -182.5t-124 -148.5z" />
<glyph unicode="&#x2022;" d="M438 709l2 44q3 40 18 74t40 59t59 39t75 14q39 0 70 -13.5t52.5 -37t33.5 -56t12 -69.5l-3 -45q-3 -39 -18 -72.5t-40 -57.5t-59 -37t-74 -13q-38 0 -68.5 13t-52.5 35.5t-34.5 54t-12.5 68.5z" />
<glyph unicode="&#x2026;" d="M162 83q1 21 9.5 39.5t22.5 33t32.5 23t39.5 8.5t39.5 -7.5t31.5 -21t20 -32t6 -39.5q-2 -43 -32.5 -71t-72.5 -29q-21 0 -39 7t-31 19.5t-20 30.5t-6 39zM512 83q1 21 9.5 39.5t22.5 33t32.5 23t39.5 8.5t39.5 -7.5t31.5 -21t20 -32t6 -39.5q-2 -43 -32.5 -71t-72.5 -29 q-21 0 -39 7t-31 19.5t-20 30.5t-6 39zM851 83q1 21 9.5 39.5t22.5 33t32.5 23t39.5 8.5t39.5 -7.5t31.5 -21t20 -32t6 -39.5q-2 -43 -32.5 -71t-72.5 -29q-21 0 -39 7t-31 19.5t-20 30.5t-6 39z" />
<glyph unicode="&#x202f;" horiz-adv-x="380" />
<glyph unicode="&#x2039;" d="M392 545l2 19l348 380h113l-341 -395l198 -382h-95z" />
<glyph unicode="&#x203a;" d="M320 162l341 394l-197 388h97l223 -382l-2 -20l-348 -380h-114z" />
<glyph unicode="&#x205f;" horiz-adv-x="475" />
<glyph unicode="&#x20ac;" d="M111 564l15 88h186l29 164h-187l17 89l181 -3l1 8q24 118 74 222t125.5 181.5t178 121t233.5 42.5q58 -1 114 -10t112 -22l-21 -106q-51 17 -103 26.5t-106 10.5q-107 1 -188.5 -35.5t-140.5 -100t-97.5 -148.5t-60.5 -180l-2 -11l411 4l-16 -89h-406l-29 -164h407 l-15 -88h-405l-3 -18q-12 -86 -1.5 -168.5t48 -147.5t103 -105.5t163.5 -42.5q57 -1 112 8.5t110 23.5l-1 -105q-56 -14 -111.5 -22t-112.5 -7q-120 2 -208 48.5t-142.5 124.5t-74 179.5t-1.5 213.5l3 19z" />
<glyph unicode="&#x2122;" d="M238 1387l10 69h381l-11 -69h-155l-80 -468h-73l79 468h-151zM615 919l93 537h88l78 -427l230 427h92l-93 -537h-73l71 406l-215 -406h-52l-73 422l-74 -422h-72z" />
<glyph unicode="&#x25fc;" horiz-adv-x="1080" d="M0 0v1080h1080v-1080h-1080z" />
</font>
</defs>
</svg>
