<?xml version="1.0" standalone="no"?>
<!DOCTYPE svg PUBLIC "-//W3C//DTD SVG 1.1//EN" "http://www.w3.org/Graphics/SVG/1.1/DTD/svg11.dtd" >
<svg xmlns="http://www.w3.org/2000/svg">
<metadata></metadata>
<defs>
<font id="roboto_monomedium_italic" horiz-adv-x="1202" >
<font-face units-per-em="2048" ascent="1536" descent="-512" />
<missing-glyph horiz-adv-x="500" />
<glyph horiz-adv-x="0" />
<glyph unicode="&#xd;" />
<glyph horiz-adv-x="0" />
<glyph horiz-adv-x="0" />
<glyph />
<glyph unicode="&#x9;" />
<glyph unicode=" " />
<glyph unicode="!" d="M366 115q0 30 10.5 55.5t28.5 44t43.5 29t55.5 11.5q29 1 54 -8.5t43.5 -27t29 -42t10.5 -54.5t-10.5 -55t-29.5 -43t-44 -28.5t-55 -10.5q-29 -1 -54 8t-43 26t-28.5 41t-10.5 54zM456 493l160 963h236l-175 -963h-221z" />
<glyph unicode="&#x22;" d="M369 1030l80 506h178l-18 -117l-85 -389h-155zM748 1030l80 506h179l-19 -117l-84 -389h-156z" />
<glyph unicode="#" d="M16 410l28 157h250l112 314h-236l28 159h264l149 416h166l-149 -416h214l149 416h168l-148 -416h198l-28 -159h-227l-112 -314h212l-28 -157h-239l-146 -410h-167l145 410h-214l-145 -410h-167l146 410h-223zM461 567h214l111 314h-214z" />
<glyph unicode="$" d="M112 442h233q-3 -54 6 -101.5t33 -84t64.5 -58t100.5 -22.5q50 -1 96 12t82.5 40t60.5 66.5t30 92.5q6 49 -8.5 86.5t-42 65.5t-65.5 48.5t-79 37.5q-76 31 -143.5 69.5t-117 91t-75.5 121t-20 159.5q6 90 41.5 161.5t92.5 122.5t132 82t161 41l39 218h156l-40 -222 q87 -17 146 -61.5t93.5 -106.5t47.5 -138.5t8 -157.5h-233q3 46 -2.5 94t-24.5 87.5t-54 64.5t-92 27q-49 1 -90.5 -13.5t-72.5 -42t-50.5 -67t-24.5 -87.5q-6 -51 8.5 -88t43 -64.5t67 -48t80.5 -37.5q76 -32 142.5 -70.5t115 -91t74 -121t19.5 -158.5q-6 -94 -43 -165.5 t-96.5 -122t-137.5 -79.5t-166 -38l-35 -194h-156l36 195q-92 14 -158 53.5t-108 99.5t-60.5 137.5t-13.5 166.5z" />
<glyph unicode="%" d="M129 1119l7 76q7 61 31.5 113.5t64 90.5t92.5 59t117 20q61 -2 107.5 -24t77 -60t44 -89t9.5 -109l-7 -77q-7 -61 -31.5 -112.5t-63.5 -89t-91.5 -58.5t-115.5 -20q-61 1 -107.5 23.5t-77.5 60t-45.5 88t-10.5 108.5zM214 264l720 1023l119 -67l-719 -1023zM298 1116 q-1 -23 2 -47t12.5 -43.5t27.5 -32t47 -12.5t50.5 12t36 31t22.5 43.5t11 50.5l7 79q1 24 -1.5 48t-12.5 44t-28 32.5t-47 12.5t-50.5 -12t-36 -31t-23 -44t-11.5 -50zM555 259l6 77q7 61 31.5 113t64.5 90t93 59t116 20q61 -2 107.5 -24t77 -60t44.5 -88.5t10 -108.5 l-8 -78q-7 -61 -31 -112.5t-63 -89t-92 -58.5t-116 -20q-61 1 -107.5 23t-77.5 59.5t-45 88t-10 109.5zM722 257q-2 -23 1.5 -47.5t13 -44t27.5 -32t47 -12.5q30 0 51.5 11.5t36 30.5t22 44t10.5 51l7 80q1 24 -1.5 48t-12 43.5t-27 32t-46.5 12.5t-50.5 -11.5t-36.5 -31 t-24 -44t-12 -49.5z" />
<glyph unicode="&#x26;" d="M50 366q5 73 33.5 133.5t72.5 110t99.5 91t114.5 77.5q-18 39 -33.5 78.5t-27 80t-16.5 82t-2 85.5q7 84 39.5 153.5t86 119t125 76t157.5 24.5q65 -2 119 -27.5t91.5 -68.5t57 -100t15.5 -121q-4 -57 -26 -104t-55.5 -86.5t-75.5 -73.5t-85 -65l-105 -78l202 -345 q46 66 74 135.5t39 148.5l202 1q-12 -132 -63 -246.5t-145 -208.5l136 -238h-258l-50 90q-80 -52 -165.5 -82t-182.5 -28q-84 1 -155 29t-122 78.5t-77 121t-20 157.5zM287 373q-5 -41 2.5 -77t27 -63.5t51 -44t75.5 -17.5q63 -2 121 20t112 53l-212 380l-18 -14 q-28 -22 -54.5 -48t-48 -56t-36.5 -63.5t-20 -69.5zM504 1105q-6 -53 8.5 -102.5t35.5 -97.5l112 80q44 32 74.5 71.5t35.5 95.5q2 23 -2 46.5t-14.5 42.5t-28 31t-44.5 13q-38 1 -68.5 -14t-53 -40.5t-37 -58.5t-18.5 -67z" />
<glyph unicode="'" d="M524 1022l81 514h187l-21 -134l-83 -380h-164z" />
<glyph unicode="(" d="M319.5 389.5q2.5 95.5 14.5 181.5l2 17q14 98 40 201t65 204.5t91 197.5t118 179.5t147 151t177 111.5l34 -143q-106 -80 -183.5 -182.5t-131.5 -219t-88 -242.5t-53 -253l-3 -20q-10 -69 -16.5 -148.5t-6.5 -162.5t9 -166.5t31.5 -160.5t60.5 -145t96 -120l-58 -133 q-82 51 -141 124t-100 159.5t-64 182.5t-33 193.5t-7.5 193z" />
<glyph unicode=")" d="M160 -328q106 81 183.5 184t132 220.5t88.5 244t53 254.5l3 20q9 67 16 146t7 162.5t-9.5 168t-31.5 162t-60 145.5t-95 119l55 134q82 -51 142 -123t101.5 -158.5t66 -183t35 -194.5t8 -194t-13.5 -182l-2 -17q-14 -98 -40.5 -201t-66 -204.5t-92.5 -197.5t-120 -179.5 t-148.5 -151t-177.5 -110.5z" />
<glyph unicode="*" d="M169 744l88 189l338 -162l36 432h200l-100 -427l374 153l29 -205l-394 -90l205 -329l-174 -117l-146 370l-256 -355l-154 123l310 323z" />
<glyph unicode="+" d="M101 575l39 225h371l71 406h228l-71 -406h371l-40 -225h-370l-75 -429h-227l75 429h-372z" />
<glyph unicode="," d="M188 -302q53 76 89 156t53 171l36 209h233l-34 -200q-20 -121 -84.5 -226.5t-159.5 -183.5z" />
<glyph unicode="-" d="M231 542l34 193h778l-34 -193h-778z" />
<glyph unicode="." d="M362 137q0 37 13 69t36 55.5t54.5 37t69.5 13.5q36 0 66.5 -11.5t52 -33.5t34 -52t12.5 -66q0 -38 -13.5 -69t-36.5 -53.5t-55 -35t-69 -12.5q-35 0 -65 11t-52 31.5t-34.5 50t-12.5 65.5z" />
<glyph unicode="/" d="M95 -125l834 1581h221l-833 -1581h-222z" />
<glyph unicode="0" d="M131.5 348q-11.5 102 1.5 206l54 348q17 112 56.5 217t106 185.5t161 128t221.5 44.5q121 -3 200 -54t122.5 -132t54.5 -182.5t-2 -206.5l-54 -347q-17 -113 -56.5 -218t-105.5 -185.5t-161 -128t-222 -44.5q-121 3 -199.5 54t-122 132t-55 183zM352 454q-3 -50 1 -99.5 t23 -90t54.5 -66.5t95.5 -28q73 -3 123.5 27.5t84 80t51.5 111.5t27 123l46 283zM380 654l506 341q4 50 0.5 101t-21.5 92t-54 68t-97 29q-73 3 -123.5 -27t-83.5 -79t-51.5 -110.5t-27.5 -122.5z" />
<glyph unicode="1" d="M255 1021l39 218l608 217h19l-246 -1456h-235l200 1156z" />
<glyph unicode="2" d="M7 0l28 173l532 510q38 37 81 79t81.5 89t66 99t34.5 108q6 44 -2.5 84t-30.5 70.5t-57 49t-82 19.5q-64 2 -113 -17t-84.5 -55t-56.5 -86t-29 -109l-231 -1q9 104 54.5 190.5t117.5 147.5t165 94t197 31q90 -2 164.5 -31.5t127 -82.5t78.5 -128t18 -167 q-7 -81 -42.5 -153.5t-86.5 -137t-111 -122t-116 -109.5l-376 -354h654l-31 -191h-950z" />
<glyph unicode="3" d="M53 390l233 -1q-5 -96 46 -155.5t150 -62.5q57 -2 105 15t84.5 49.5t60 78t29.5 101.5q13 112 -44 170.5t-166 61.5l-152 1l34 188l128 -2q56 1 105.5 16t88.5 44.5t64 73.5t32 102q6 47 -2.5 86t-30.5 67.5t-57.5 44.5t-84.5 17t-91.5 -13.5t-75 -42t-54.5 -66 t-31 -86.5l-232 -1q9 95 53 170t112.5 126.5t154 78.5t177.5 25q91 -2 167.5 -29.5t130.5 -79.5t81 -127t19 -170q-5 -59 -28.5 -108.5t-59 -90.5t-81.5 -73t-96 -56q49 -23 83 -57t54.5 -76.5t28 -91.5t3.5 -101q-9 -105 -54.5 -187t-117.5 -138t-164 -84.5t-192 -26.5 q-92 2 -169 31t-132 81.5t-84 127.5t-25 170z" />
<glyph unicode="4" d="M22 324l21 156l774 976h247l-163 -939h178l-34 -193h-177l-57 -324h-233l57 324h-613zM296 517h372l115 623l-34 -50z" />
<glyph unicode="5" d="M107 393h224q2 -47 15.5 -87t38 -70t62 -47.5t87.5 -18.5q66 -2 115 24.5t83 70t53.5 100t25.5 114.5q6 53 -1.5 103t-31 89t-63.5 63t-100 26q-65 2 -116 -20.5t-99 -63.5l-191 49l204 731h758l-38 -214h-561l-105 -346q51 29 107 44t115 14q103 -1 175 -42t115 -108.5 t59 -154t7 -178.5q-11 -107 -53 -198t-111 -157t-161.5 -102.5t-202.5 -33.5q-92 2 -167 32.5t-128.5 84.5t-83.5 129.5t-31 166.5z" />
<glyph unicode="6" d="M112 550l12 93q23 169 85 318t163.5 260.5t243 176t324.5 65.5h31l-21 -205l-13 1q-110 1 -198 -30t-156 -88t-118 -137.5t-83 -179.5q61 63 137.5 101.5t166.5 37.5q99 -2 168 -44.5t110.5 -110t57.5 -152.5t8 -172q-10 -105 -51 -197.5t-108.5 -161.5t-159 -108.5 t-200.5 -36.5q-116 3 -197 54t-129.5 132t-66.5 181.5t-6 202.5zM340.5 457.5q-0.5 -38.5 4.5 -78t17 -76t33 -65.5t52.5 -47t75.5 -19q63 -2 111.5 24.5t83 70.5t54.5 99t25 111q5 48 -1 99t-26 93.5t-57 71t-95 30.5q-44 1 -83 -12t-72.5 -36.5t-61 -55.5t-48.5 -68 l-9 -70q-3 -33 -3.5 -71.5z" />
<glyph unicode="7" d="M154 0l762 1257h-728l32 199h978l-23 -143l-766 -1313h-255z" />
<glyph unicode="8" d="M104 387q5 67 29 123t62 102t88.5 81.5t109.5 61.5q-75 54 -110.5 135t-28.5 173q7 97 47 174.5t104.5 131.5t148.5 82t179 26q87 -2 160 -30.5t124.5 -80t77 -124t18.5 -162.5q-5 -60 -26 -110t-54.5 -91.5t-78.5 -75t-96 -58.5q89 -57 132 -146.5t35 -194.5 q-8 -102 -52.5 -182t-114.5 -134.5t-160 -82t-187 -25.5q-90 2 -168 30t-133.5 80.5t-84.5 127t-21 169.5zM340 400q-5 -49 4.5 -90.5t33 -72t61 -48.5t88.5 -19q55 -1 101.5 17.5t81.5 51.5t57 79t28 99q5 47 -4.5 89.5t-33 74.5t-61 51.5t-87.5 20.5q-56 1 -103 -18.5 t-82 -54t-56.5 -81t-27.5 -99.5zM484 1056q-4 -42 3.5 -80t27.5 -67.5t52.5 -47t77.5 -18.5q49 -1 90 17t71 49.5t48.5 73.5t23.5 89q4 41 -4 79t-28 67.5t-52.5 47t-77.5 18.5q-50 1 -90.5 -17t-70.5 -49t-48 -73t-23 -89z" />
<glyph unicode="9" d="M176 961q10 104 50.5 198.5t108 166t158.5 112.5t201 38q80 -2 142 -27.5t107.5 -68.5t75.5 -100.5t46 -122.5t19.5 -135t-4.5 -138l-10 -78q-24 -173 -84 -321t-160 -257t-241.5 -171.5t-327.5 -63.5h-24l22 204h14q108 -1 194.5 24.5t153 76.5t114.5 126.5t80 175.5 q-59 -60 -131 -90.5t-157 -28.5q-99 1 -169 43.5t-112 110t-58 153t-8 173.5zM406 902.5q1 -34.5 7.5 -67.5t19.5 -63t33.5 -52.5t49.5 -36.5t68 -15q43 -1 81.5 12.5t71.5 37.5t59.5 56t46.5 68l10 81q3 32 4 70.5t-4 78t-16.5 77t-32 67t-51.5 47.5t-74 20 q-63 2 -111.5 -27t-82 -75t-52.5 -102.5t-25 -110.5q-3 -31 -2 -65.5z" />
<glyph unicode=":" d="M392 137q0 37 13 69t36 55.5t54.5 37t69.5 13.5q36 0 66.5 -11.5t52 -33.5t34 -52t12.5 -66q0 -38 -13.5 -69t-36.5 -53.5t-55 -35t-69 -12.5q-35 0 -65 11t-52 31.5t-34.5 50t-12.5 65.5zM539 988q0 37 13 69t36 55.5t54.5 37t69.5 13.5q36 0 66.5 -11.5t52 -33.5 t34 -52t12.5 -66q0 -38 -13.5 -69t-36.5 -53.5t-55 -35t-69 -12.5q-35 0 -65 11t-52 31.5t-34.5 50t-12.5 65.5z" />
<glyph unicode=";" d="M288 -302q53 76 89 156t53 171l36 209h233l-34 -200q-20 -121 -84.5 -226.5t-159.5 -183.5zM554 988q0 37 13 69t36 55.5t54.5 37t69.5 13.5q36 0 66.5 -11.5t52 -33.5t34 -52t12.5 -66q0 -38 -13.5 -69t-36.5 -53.5t-55 -35t-69 -12.5q-35 0 -65 11t-52 31.5t-34.5 50 t-12.5 65.5z" />
<glyph unicode="&#x3c;" d="M148 545l33 190l906 372l-36 -244l-583 -207l-77 -26l48 -19l526 -208l-40 -231z" />
<glyph unicode="=" d="M111 322l35 199h894l-35 -199h-894zM185 746l35 199h894l-36 -199h-893z" />
<glyph unicode="&#x3e;" d="M87 162l44 246l607 209l77 23l-48 18l-557 213l40 227l803 -372l-33 -191z" />
<glyph unicode="?" d="M258 1095q10 95 52.5 167.5t108 120.5t148.5 72t175 22q87 -2 162 -26t128 -71t80.5 -117t19.5 -163q-6 -78 -38.5 -140.5t-79.5 -116t-103.5 -100t-111.5 -91.5q-29 -24 -49.5 -48.5t-34 -52t-21.5 -58.5t-13 -67l-212 -2q4 61 14.5 109t30 88.5t51.5 77t80 75.5 q37 30 77.5 64.5t76 74t61 84t32.5 94.5q13 90 -32.5 138t-133.5 50q-45 1 -84.5 -11t-70 -35.5t-51 -58t-29.5 -78.5zM374 115q0 30 10.5 56t28.5 44.5t43.5 29.5t55.5 12t55 -8.5t43.5 -27t29 -42.5t10.5 -55t-11 -55t-30 -43t-44 -28.5t-55 -10.5q-29 -1 -54 8t-43 26 t-28.5 41t-10.5 53z" />
<glyph unicode="@" d="M55.5 515.5q0.5 82.5 13.5 164.5q13 87 43 178.5t74.5 177.5t104.5 162.5t133.5 133.5t161 88.5t187.5 29.5q86 -2 152 -29.5t113 -74.5t77 -108.5t45 -131.5t16 -145t-9 -147q-7 -45 -18.5 -100.5t-30 -111.5t-45 -108.5t-63 -93t-83 -64.5t-105.5 -23q-54 2 -91 29 t-52 78q-18 -21 -38.5 -40t-43 -33.5t-48.5 -23t-55 -8.5q-44 0 -74 18.5t-48.5 48t-27 68t-10.5 78t1 78t8 68.5q8 52 24 107.5t39.5 108.5t56 100.5t74.5 83t93.5 55.5t113.5 19q57 -2 104 -22t85 -63l-119 -516q-2 -15 -4.5 -32.5t0 -32.5t11.5 -25.5t30 -11.5 q35 -2 61.5 18.5t46.5 53.5t33 74.5t22 82.5t14 77t8 59q7 55 9 112.5t-5 112t-25 103.5t-50.5 85.5t-81.5 59t-118 24.5q-83 2 -152.5 -24t-126.5 -73t-102 -110t-78.5 -133.5t-56 -144.5t-33.5 -143q-10 -59 -14 -122t2.5 -123t24.5 -113.5t53 -93.5t88 -64t129 -25 q63 -1 122.5 15t115.5 43l22 -131q-57 -39 -125.5 -56.5t-137.5 -15.5q-98 1 -171.5 29.5t-125 77.5t-83.5 115t-46.5 142t-14 158.5zM484.5 554q1.5 -35 13 -62t41.5 -29q21 -1 39.5 5.5t34.5 17.5t30 25t27 29l1 8l117 455q-9 2 -17.5 4t-17.5 2q-64 2 -109 -31t-75.5 -84 t-48 -110.5t-25.5 -109.5q-3 -17 -7.5 -51t-3 -69z" />
<glyph unicode="A" d="M-58 0l712 1456h206l197 -1456h-234l-36 338h-440l-156 -338h-249zM442 543h322l-60 568z" />
<glyph unicode="B" d="M39 0l253 1456l438 -1q88 -2 170 -25.5t143 -70t95 -118.5q27 -58 26 -134q0 -18 -1 -37q-5 -60 -27.5 -109t-58 -87.5t-82 -68.5t-98.5 -52q51 -19 88 -52t60 -75t33 -92q7 -38 6 -77v-25q-8 -109 -56.5 -190.5t-124 -135.5t-170.5 -80q-92 -26 -189 -26h-7h-498z M308 196l242 -2q55 1 106 17t91.5 46t68 74t35.5 101q2 19 2 37q1 28 -5 53q-10 41 -34 70.5t-62 47t-87 19.5l-276 1zM420 843l212 -2q51 1 100.5 14.5t89.5 40.5t67.5 67.5t35.5 95.5q2 18 2 34q0 29 -8 53q-13 36 -41 60.5t-67.5 36.5t-85.5 14l-232 1z" />
<glyph unicode="C" d="M88 476q0 15 -1 31q0 61 8 121l30 199q13 80 38 160t63 153t88.5 135.5t114.5 108.5q63 45 141 70q72 23 156 23h13q108 -2 187.5 -39.5t132.5 -102t80.5 -151t30.5 -187.5h-233q-1 55 -11 106t-34 90t-65.5 63.5t-104.5 26.5h-11q-53 1 -97 -17q-48 -20 -85.5 -54 t-65 -80t-47.5 -97t-32.5 -104t-20.5 -102l-31 -202q-6 -42 -10 -91q-2 -29 -2 -58q0 -21 2 -41q2 -50 13 -96.5t34.5 -83.5t61.5 -60t96 -25h11q58 0 105 18q51 20 88.5 58t62.5 88.5t39 109.5l229 3q-18 -105 -65.5 -192.5t-119.5 -150t-165 -96.5q-85 -31 -184 -31h-17 q-88 2 -156 30t-117.5 75t-82 109.5t-49 134t-18.5 148.5z" />
<glyph unicode="D" d="M28 0l253 1456l333 -1q144 -3 250 -58t172 -147t92 -212q15 -72 15 -150q0 -52 -7 -106l-15 -110q-22 -142 -82.5 -265t-154 -213.5t-217.5 -142t-273 -51.5h-366zM300 193l103 -1q106 0 188.5 38.5t142 104t96.5 152.5t52 185l17 113q7 51 7 102q0 33 -3 65 q-7 84 -40 151t-95.5 110.5t-162.5 47.5l-120 1z" />
<glyph unicode="E" d="M53 0l252 1456h909l-35 -198h-673l-72 -411h582l-34 -194h-581l-79 -457h680l-34 -196h-915z" />
<glyph unicode="F" d="M58 0l253 1456h916l-35 -198h-679l-77 -441h593l-35 -197h-592l-107 -620h-237z" />
<glyph unicode="G" d="M90 483v40q0 58 7 114l28 180q13 80 37.5 160.5t62.5 154t88.5 137t114.5 110t142 72.5q74 25 162 25h7q103 -2 182 -35.5t132.5 -93t82.5 -142t32 -181.5h-229q-3 52 -15 98t-37 80.5t-64.5 55t-97.5 22.5h-10q-53 0 -97 -18q-48 -21 -86 -56t-66.5 -82t-49.5 -99 t-34.5 -105t-20.5 -101l-29 -183q-6 -43 -8 -93q-1 -15 -1 -31q0 -34 3 -69q5 -50 18 -97t39 -83.5t65.5 -59.5t97.5 -26h20q58 0 115 15q66 18 117 66l55 292h-255l33 187h484l-87 -555q-47 -53 -105 -91.5t-123 -63.5t-135 -37q-60 -9 -119 -9h-20q-88 2 -157 30 t-120 75.5t-85 111t-52 135.5t-22 150z" />
<glyph unicode="H" d="M21 0l253 1456h228l-106 -609h478l106 609h229l-253 -1456h-228l113 650h-479l-113 -650h-228z" />
<glyph unicode="I" d="M71 0l35 198h298l184 1059h-299l35 199h841l-35 -199h-305l-184 -1059h306l-35 -198h-841z" />
<glyph unicode="J" d="M67 426l236 -1v-18q0 -41 7 -77q10 -45 33 -78.5t61 -54t94 -21.5h10q52 0 96 20q49 22 85.5 59.5t60 87t32.5 102.5l173 1011h237l-171 -1011q-15 -102 -63 -188t-120 -148t-164 -97q-87 -32 -184 -32h-11q-101 2 -178 35t-129.5 92t-79.5 140q-25 78 -25 172v7z" />
<glyph unicode="K" d="M38 0l253 1456h237l-117 -670l166 180l442 490h301l-601 -649l359 -807h-267l-269 630l-189 -181l-78 -449h-237z" />
<glyph unicode="L" d="M62 0l253 1456h234l-219 -1260h674l-34 -196h-908z" />
<glyph unicode="M" d="M26 0l253 1456h287l65 -626l303 626h294l-253 -1456h-220l88 510l120 609l-331 -679h-123l-81 683l-96 -633l-85 -490h-221z" />
<glyph unicode="N" d="M22 0l253 1456h232l286 -1008l178 1008h237l-253 -1456h-230l-289 1011l-176 -1011h-238z" />
<glyph unicode="O" d="M88 484v26q0 63 8 124l29 186q12 78 36.5 158t61 153.5t85.5 137.5t112 110.5t139 72.5q71 24 154 24h13q87 -2 154.5 -31t117 -77t81.5 -112t49 -136q16 -74 18 -150q0 -15 1 -30q0 -61 -8 -120l-29 -185q-13 -79 -37.5 -159t-61.5 -153.5t-87 -137t-114 -109.5 t-141 -72q-71 -24 -155 -24h-13q-87 2 -153.5 31t-115 77.5t-79.5 112t-47 135.5t-18 148zM320 448q2 -50 13.5 -97t34 -84t59.5 -60.5t93 -25.5h11q53 -1 95 17q48 20 84.5 54.5t64 81t47.5 97.5t32.5 103.5t20.5 99.5l29 189q4 41 8 89q2 24 2 48q0 26 -2 50q-4 50 -15 96 t-34.5 82.5t-61 59.5t-93.5 25h-11q-53 1 -95 -17q-46 -20 -82 -54.5t-62.5 -80.5t-45.5 -97t-31.5 -103t-20.5 -99l-29 -189q-5 -39 -9 -87q-2 -28 -2 -57q-1 -20 0 -41z" />
<glyph unicode="P" d="M57 0l253 1456l460 -1q97 -3 178 -35t138 -90t86 -138q22 -61 22 -135q0 -23 -2 -46q-9 -110 -57.5 -194t-124 -142t-171.5 -88t-199 -30l-251 1l-97 -558h-235zM422 752l229 -2q58 0 110.5 18.5t93.5 52t67.5 81t33.5 107.5q2 20 2 39q0 30 -6 57q-10 45 -34 78.5 t-63.5 54t-93.5 23.5l-250 1z" />
<glyph unicode="Q" d="M84 475q-1 17 -1 34q0 58 8 113l29 186q13 80 37.5 161t61.5 156t86.5 140t113 112.5t141.5 74.5q72 24 157 24h13q89 -2 157.5 -31.5t118 -79t81.5 -114.5t49 -138.5t19 -151.5v-26q0 -65 -8 -127l-29 -185q-12 -76 -35 -148.5t-58 -139t-83 -125t-109 -106.5l203 -219 l-169 -136l-230 248q-34 -7 -67 -11q-28 -4 -56 -4h-13q-85 1 -151 29t-114.5 75t-81 109.5t-50 133.5t-20.5 146zM318 534q-1 -22 -1 -45q0 -25 1 -51q4 -49 16 -94t35.5 -80.5t61 -58t92.5 -24.5h11q52 0 94 17q48 18 85 51.5t65 78t48.5 94t33.5 101t21 99.5l30 190 q6 42 9 92q2 26 2 53q0 23 -1 47q-3 50 -14.5 97.5t-35.5 85t-63 61t-97 25.5h-11q-54 0 -98 -18q-48 -20 -84.5 -55.5t-63.5 -82.5t-46.5 -99.5t-31.5 -106t-20 -101.5l-29 -189q-6 -40 -9 -87z" />
<glyph unicode="R" d="M44 0l252 1456l435 -1q98 -2 181.5 -30.5t143.5 -82.5t90 -134q24 -61 23 -137q0 -22 -2 -46q-6 -75 -32.5 -137.5t-68.5 -112t-99 -88t-125 -65.5l195 -609l-1 -13h-249l-170 568h-240l-99 -568h-234zM410 762l205 -2q59 0 113 17t96.5 50t70 80.5t35.5 109.5q3 22 3 42 q1 81 -45 133q-56 64 -166 69l-225 1z" />
<glyph unicode="S" d="M70 438h234q1 -60 17.5 -108t49 -82t79.5 -53t108 -20h7q45 -1 90 11q48 12 87.5 38.5t66.5 65.5t34 92q2 14 2 28q0 38 -15 67q-20 40 -55 69t-80 49t-88 35q-75 26 -147.5 64t-129 90.5t-88.5 121.5q-27 58 -28 131q0 14 1 28q6 100 55 177.5t123 129.5q74 54 166 80 q86 25 171 24h13q97 -2 178.5 -35t140.5 -91.5t91 -139.5q29 -74 29 -162v-17h-233q-1 53 -14.5 98t-41 78t-68.5 52t-98 20h-7q-45 -1 -89 -13q-47 -14 -85.5 -40.5t-64 -67t-31.5 -92.5q-1 -11 -1 -22q-1 -38 17 -68q22 -38 60 -64.5t83.5 -45t86.5 -32.5 q77 -27 148.5 -67t125.5 -94.5t84 -126.5q25 -60 26 -132q0 -14 -1 -29q-7 -103 -56 -179.5t-124 -127t-168 -74.5q-86 -23 -172 -23h-14q-100 2 -188 34.5t-152.5 91.5t-100.5 143q-34 78 -34 172v16z" />
<glyph unicode="T" d="M162 1258l35 198h1097l-35 -198h-433l-218 -1258h-233l218 1258h-431z" />
<glyph unicode="U" d="M108 480l168 976h230l-164 -976q-3 -29 -4 -58q0 -22 2 -45q4 -53 24 -97t58 -73t99 -31h13q58 0 104 23q50 26 86 69.5t58.5 99.5t31.5 114l168 974h231l-165 -973q-16 -107 -61 -199.5t-115 -161.5q-70 -68 -164 -106q-89 -36 -196 -36h-11q-105 2 -183.5 43.5 t-128.5 110t-71 158.5q-14 59 -14 121q0 33 4 67z" />
<glyph unicode="V" d="M184 1456h249l121 -1088l464 1088h262l-665 -1456h-223z" />
<glyph unicode="W" d="M134 0l47 1456h216l-47 -942l291 942h183v-949l250 949h221l-408 -1456h-224l-2 964l-303 -964h-224z" />
<glyph unicode="X" d="M-46 0l535 744l-285 712h263l182 -541l356 541h287l-523 -732l294 -724h-263l-193 550l-365 -550h-288z" />
<glyph unicode="Y" d="M197 1456h251l172 -694l415 694h271l-610 -945l-90 -511h-228l93 541z" />
<glyph unicode="Z" d="M4 0l25 171l855 1087h-679l31 198h961l-25 -167l-857 -1093h708l-32 -196h-987z" />
<glyph unicode="[" d="M253 -323l313 2000h415l-30 -188h-187l-254 -1625h188l-30 -187h-415z" />
<glyph unicode="\" d="M378 1456h205l286 -1581h-206z" />
<glyph unicode="]" d="M243 -323l30 187h189l254 1625h-190l30 188h416l-312 -2000h-417z" />
<glyph unicode="^" d="M222 683l444 773h165l175 -773h-190l-98 468l-3 71l-37 -90l-246 -449h-210z" />
<glyph unicode="_" d="M8 -188l33 188h892l-33 -188h-892z" />
<glyph unicode="`" d="M541 1478h252l129 -273h-172z" />
<glyph unicode="a" d="M80 295q4 71 28.5 126t63.5 95.5t90.5 68.5t109.5 45.5t119.5 24.5t122.5 7l177 -1l12 73q2 16 2 31q-1 25 -7 47q-10 34 -34 58t-59 36.5t-78 13.5h-8q-34 0 -64 -8q-34 -8 -62 -26.5t-47 -46.5t-27 -67l-233 -1q7 86 52 149t112 104q67 40 147 60q76 19 149 19h8 q84 -2 157.5 -26.5t126.5 -71.5q52 -47 80 -116q21 -52 21 -116q0 -21 -2 -43l-79 -483q-9 -57 -12 -115v-17q0 -49 15 -97l-2 -18h-233q-8 26 -9 52t0 53q-65 -59 -143 -93q-73 -32 -158 -31h-10q-68 1 -129 23t-106 62t-70 98q-22 50 -22 111q0 10 1 20zM317 321 q-2 -13 -2 -24q1 -23 7 -41q10 -28 29.5 -46t48.5 -27.5t64 -10.5h8q75 0 142 34q70 36 119 99l37 204l-135 1q-49 0 -102 -8t-99 -28.5t-78 -57.5t-39 -95z" />
<glyph unicode="b" d="M49 0l266 1536h234l-106 -558q59 62 130 94q67 30 147 30h10q74 -2 129.5 -26t94.5 -64.5t63.5 -94t36.5 -113.5t14 -124q0 -13 1 -25q0 -50 -5 -99l-3 -21q-8 -67 -26 -134.5t-47 -130t-68.5 -116.5t-91.5 -93.5t-116 -61.5q-59 -20 -128 -20h-13q-84 2 -154 35.5 t-118 102.5l-37 -117h-213zM337 317q23 -67 71 -104t120 -39h9q69 0 119 30q54 32 89.5 85t55 118t27.5 128l3 22q3 35 5 75q0 11 1 21q0 28 -3 56q-4 38 -15 73.5t-32 62.5t-53 43.5t-79 18.5h-8q-75 1 -131 -37q-58 -40 -101 -104z" />
<glyph unicode="c" d="M113 519l4 37q13 112 58 212.5t117.5 175.5t170.5 118q92 40 202 40h15q89 -2 162.5 -32.5t125 -84t78.5 -127.5q23 -62 23 -136q0 -14 -1 -28l-219 1q1 9 1 17q0 34 -10 66q-12 38 -36 67t-60 46t-82 19h-13q-67 0 -117 -28q-55 -32 -93 -83t-60 -115t-31 -128l-4 -36 q-4 -37 -4 -77q0 -4 -1 -7q0 -36 5 -72q5 -38 17.5 -73t35 -61.5t56 -43t81.5 -17.5h6q40 -1 78 11q42 12 75.5 37t57 59.5t31.5 78.5l220 1q-7 -88 -52 -158.5t-113 -119.5t-151 -75q-77 -24 -153 -24h-12q-116 2 -198 47.5t-133 119.5q-50 76 -69 172q-12 61 -12 125 q0 38 4 76z" />
<glyph unicode="d" d="M104 400q-1 18 0 36q0 43 4 85l2 22q8 67 27 135t48.5 131t70 117t93 94t117.5 62q60 20 129 20h13q77 -2 142 -31t113 -88l103 553h234l-266 -1536h-210l15 110q-60 -64 -133 -98q-69 -32 -153 -32h-10q-71 2 -125 26.5t-93.5 65t-65 94t-39.5 113t-16 121.5zM338 410 q2 -60 19 -111.5t55 -86t106 -36.5h8q72 0 126 34q57 36 100 96l83 472q-24 62 -71 94.5t-113 34.5h-9q-70 0 -121 -31q-55 -33 -91.5 -86t-57.5 -119t-28 -129l-3 -21q-4 -40 -4 -84q1 -13 1 -27z" />
<glyph unicode="e" d="M104 499l5 42q8 73 32 144t61.5 134t87.5 115.5t112 90.5q62 39 132 59q64 19 135 18h14q114 -3 193.5 -48t127.5 -119q48 -73 64 -169q9 -53 9 -110q0 -44 -6 -89l-15 -101h-722q-1 -16 -2 -31q0 -41 10 -79q14 -52 44.5 -93t77 -65.5t108.5 -25.5h13q81 0 153 33 q78 36 137 99l117 -122q-37 -53 -87.5 -91.5t-109.5 -63.5t-123 -37q-58 -11 -115 -10h-10q-110 2 -197 43.5t-144 111.5q-58 69 -85 163q-20 68 -20 144q0 28 3 57zM359 642l492 -1l4 21q3 21 3 42q0 26 -5 51q-9 44 -34 78t-64 54.5t-90 22.5h-10q-54 0 -98 -21 q-48 -23 -85.5 -61t-65.5 -87t-47 -99z" />
<glyph unicode="f" d="M184 904l31 178h278l11 67q16 102 58.5 183t107.5 137t152 85q83 28 183 28h7q66 -1 130 -12t128 -24l-42 -190q-48 14 -98 22t-101 9h-4q-117 0 -190 -59q-74 -60 -97 -178l-13 -69l397 1l-32 -178h-389l-157 -904h-234l157 904h-283z" />
<glyph unicode="g" d="M34 -248l124 146q46 -63 108.5 -98.5t141.5 -37.5h12q55 0 102 16q52 18 92 52.5t67 83t39 108.5l15 74q-60 -57 -131 -87q-66 -28 -144 -28h-10q-71 1 -126 25.5t-95 64.5t-66 93t-40 112.5t-17 121.5q-1 21 -1 42q0 41 4 81l2 21q8 68 27.5 136.5t49.5 131.5t71 117 t94.5 93.5t118.5 61.5q60 20 130 20h13q81 -2 149.5 -32.5t116.5 -96.5l35 109h213l-179 -1053q-15 -106 -61.5 -191.5t-117.5 -145t-163 -90.5q-87 -29 -187 -29h-13q-54 1 -107 13t-101.5 34.5t-91 55.5t-74.5 76zM340 408q2 -59 20.5 -110t57.5 -85.5t107 -36.5h8 q71 0 125 32q57 35 101 94l84 480q-52 122 -185 125h-9q-69 0 -121 -31q-56 -32 -93.5 -85.5t-59 -119t-29.5 -129.5l-3 -21q-4 -37 -4 -78q0 -17 1 -35z" />
<glyph unicode="h" d="M46 0l266 1536h234l-114 -605q31 38 67 70t77 55q40 22 86 34q42 12 89 12h8q94 -2 157.5 -38.5t99.5 -96.5t48 -138q6 -44 7 -89q0 -36 -4 -73l-112 -667h-233l112 670q3 24 3 46.5t-3 43.5q-6 42 -25.5 74t-54 50.5t-87.5 20.5h-9q-70 0 -128 -31q-62 -33 -113 -87 l-138 -787h-233z" />
<glyph unicode="i" d="M96 0l35 198h325l119 685h-326l35 199h561l-153 -884h312l-35 -198h-873zM639 1358q0 29 10 53t28 42t42.5 28t53.5 11h6q25 0 47 -8q24 -9 42.5 -25.5t29 -40t10.5 -52.5t-11 -53.5t-29 -42.5t-43 -28t-53 -10h-6q-24 0 -46 8q-24 9 -42.5 25.5t-28.5 40t-10 52.5z" />
<glyph unicode="j" d="M40 -420l36 194q79 -15 162 -15h7q50 0 91 14q43 15 75 44t53 71t29 95l153 900h-304l35 199h539l-187 -1099q-15 -102 -55 -181t-103 -132.5t-147 -81.5q-82 -26 -181 -26h-7q-99 0 -196 18zM709 1358q0 29 10 53t28 42t42.5 28t53.5 11h6q24 0 47 -8q24 -9 42 -25.5 t28.5 -40t10.5 -52.5t-10.5 -53.5t-28.5 -42t-42.5 -27.5t-53.5 -11h-6q-24 0 -46 8q-25 9 -43 25.5t-28 40t-10 52.5z" />
<glyph unicode="k" d="M47 0l266 1536h234l-156 -894l110 105l364 335l296 -1l-493 -459l352 -622h-275l-250 471l-156 -131l-59 -340h-233z" />
<glyph unicode="l" d="M88 0l35 198h333l198 1139h-334l35 199h569l-232 -1338h320l-35 -198h-889z" />
<glyph unicode="m" d="M-23 0l188 1082l202 1l-22 -116q40 61 94 99q53 37 125 36h4q60 0 103.5 -26.5t60.5 -86.5q41 51 91 83q47 30 110 29h8q64 -1 104.5 -29.5t62.5 -73.5q20 -44 26 -99q3 -29 3 -57q0 -26 -2 -52l-131 -790h-217l133 794q2 21 1 41t-8.5 36t-23 25.5t-40.5 9.5 q-38 0 -63 -19.5t-45 -50.5l-145 -836h-212l134 793q2 21 1 41t-8 36t-21.5 26t-39.5 10h-4q-36 0 -60 -18q-26 -19 -47 -48l-145 -840h-217z" />
<glyph unicode="n" d="M46 0l188 1082l209 1l-20 -152q67 77 151 125q81 46 181 46h8q93 -2 155 -37.5t98 -94.5q34 -58 46 -134q6 -43 7 -88q0 -35 -4 -72l-113 -676h-233l112 673q3 27 3 52q0 21 -2 40q-5 42 -24 73t-54 49t-90 19h-8q-35 0 -66 -8q-35 -9 -65.5 -26.5t-58 -41.5t-51.5 -53 l-135 -777h-234z" />
<glyph unicode="o" d="M97 523l2 21q14 112 58.5 214.5t116.5 179.5q74 77 172 122q92 42 204 42h15q115 -3 197.5 -49.5t133 -122.5t70.5 -174q12 -62 12 -127q0 -37 -4 -75l-2 -22q-14 -112 -59 -213.5t-117 -178.5q-74 -76 -172 -120q-92 -41 -203 -41h-15q-114 3 -196.5 49t-133.5 121 q-50 75 -70 172q-12 62 -13 127q0 37 4 75zM326 446q0 -3 -1 -6q0 -37 6 -73q6 -39 19 -74t36 -62t56.5 -44t80.5 -18h12q67 0 119 30q56 33 93.5 86t60 119t30.5 129l2 20q4 37 4 76q0 20 -1 41q-3 62 -22.5 114.5t-61 88t-111.5 37.5h-9q-70 0 -122 -31q-56 -33 -94 -86.5 t-60.5 -119.5t-30.5 -129l-2 -21q-4 -37 -4 -77z" />
<glyph unicode="p" d="M-25 -416l259 1498l213 1l-16 -110q60 63 133 97q69 32 152 32h10q74 -2 129.5 -26t95 -64t64 -93t37 -113t14.5 -124v-22q0 -52 -6 -102l-2 -22q-8 -66 -26 -133.5t-47 -130t-69 -117t-91.5 -94t-115.5 -61.5q-59 -21 -129 -21h-12q-78 2 -145.5 30t-118.5 88l-96 -513 h-233zM332 295q24 -61 71 -92t114 -33h12q43 0 79 13q40 15 72.5 42t57 63.5t42 77.5t28 85t16.5 86l3 21q4 35 5 74v8q0 35 -4 69q-5 38 -17 73.5t-33.5 62.5t-53.5 43.5t-78 17.5h-8q-70 0 -123 -32q-56 -34 -99 -92z" />
<glyph unicode="q" d="M106 400q-1 18 -1 36q0 44 4 86l3 21q12 103 47.5 204t97 181t149.5 128q83 46 192 46h14q79 -2 146.5 -32.5t116.5 -93.5l36 106h211l-260 -1498h-234l97 508q-58 -56 -127 -85q-66 -27 -141 -27h-10q-72 1 -127 25.5t-94.5 65t-65 93.5t-39 113t-15.5 123zM338 410 q2 -61 20 -113.5t56.5 -88t106.5 -37.5h8q70 0 123 32q55 34 99 91l87 498q-26 58 -72.5 87t-110.5 31h-9q-69 0 -121 -31q-55 -33 -92.5 -86.5t-58.5 -119.5t-29 -130l-3 -21q-4 -40 -4 -85v-27z" />
<glyph unicode="r" d="M191 0l188 1082l218 1l-27 -171q36 43 77.5 78.5t88.5 61t99 39t110 13.5q50 -1 100 -7.5t98 -22.5l-62 -234q-51 12 -101.5 19.5t-103.5 8.5h-5q-109 0 -189 -48q-82 -48 -140 -143l-118 -677h-233z" />
<glyph unicode="s" d="M99 342l226 -1q1 -47 18.5 -81t46.5 -56t68 -33t83 -11q35 0 75.5 6t76.5 21.5t62 42.5t32 69q1 9 1 18q0 30 -16 50q-22 26 -56 42t-73.5 25t-67.5 16q-41 10 -85 23t-85.5 31t-79 42.5t-64.5 56.5q-27 33 -43 73q-13 34 -12 75v16q3 58 24 105.5t56 85t81 65.5t97 45.5 t104 25.5q47 8 93 8h11q79 -1 153.5 -22.5t132 -64.5t91.5 -107.5t33 -151.5l-232 1v5q0 38 -14 66q-15 30 -40.5 51t-60 31t-73.5 10q-35 0 -73 -7t-70.5 -23.5t-56 -44t-29.5 -67.5q-1 -10 -1 -19q0 -28 14 -47q18 -25 49 -40t67.5 -23t65.5 -14q43 -10 89 -22.5t90 -30 t83 -41.5t68 -57q28 -33 44 -75q14 -37 14 -84v-12q-5 -92 -52 -156t-118 -104t-155 -58q-76 -16 -146 -16h-16q-81 1 -159 24.5t-138.5 68.5t-97 112.5t-35.5 157.5z" />
<glyph unicode="t" d="M179 904l31 178h256l46 262h233l-46 -262h398l-32 -178h-396l-86 -520q-3 -24 -3 -46q0 -18 2 -34q4 -36 20 -63.5t45.5 -44t76.5 -17.5h19q48 0 96 8q57 10 114 22l10 -167q-34 -20 -73 -32t-80 -19t-82 -9q-29 -2 -58 -2h-22q-86 1 -147 32.5t-97 84.5t-50 123 q-8 44 -9 93q0 29 3 59l87 532h-256z" />
<glyph unicode="u" d="M134 276q-4 40 -4 80q0 43 5 86l106 640h234l-107 -643q-5 -45 -6 -91v-8q0 -42 11 -76q12 -38 42 -62.5t87 -25.5h13q77 0 137 32q64 36 111 105l134 769h234l-187 -1082h-210l20 148q-30 -38 -65.5 -69.5t-75.5 -54t-85 -34.5q-42 -11 -87 -11h-8q-98 2 -160.5 43 t-96.5 106.5t-42 147.5z" />
<glyph unicode="v" d="M161 1082l228 1l142 -781l4 -76l32 84l373 772h248l-580 -1082h-201z" />
<glyph unicode="w" d="M121 1082l200 1l-16 -727l-8 -71l24 71l277 726h153l24 -734l-3 -74l27 90l225 718h216l-393 -1082h-196l-31 724l1 17l-6 -17l-282 -724h-196z" />
<glyph unicode="x" d="M-7 0l477 558l-283 524h245l189 -365l307 365h272l-462 -542l292 -540h-245l-201 378l-318 -378h-273z" />
<glyph unicode="y" d="M-16 -419l52 185q22 -2 44 -4.5t43 -1.5q33 1 60.5 16.5t50 38.5t41.5 50.5t36 51.5l99 146l-265 1019h248l143 -661l15 -115l429 776h268l-746 -1246q-32 -55 -71 -105t-86.5 -88t-105 -60t-125.5 -22q-33 1 -65.5 6.5t-64.5 13.5z" />
<glyph unicode="z" d="M41 0l27 167l705 721h-583l31 194h903l-25 -162l-714 -729h628l-30 -191h-942z" />
<glyph unicode="{" d="M299 529l18 176q133 2 210 66t95 198l22 163q12 93 44.5 176t86.5 146.5t130 102.5t176 43l14 -141q-68 -2 -110 -32.5t-66.5 -77.5t-36 -104.5t-18.5 -112.5l-21 -163q-17 -134 -90 -219.5t-195 -136.5q49 -26 83.5 -62.5t55.5 -81t28.5 -95.5t2.5 -105l-21 -164 q-5 -43 -8.5 -97t6.5 -102.5t38 -83.5t86 -41l-37 -140q-90 4 -152 48t-99 110.5t-50 147.5t-4 159l21 164q13 124 -35.5 188.5t-173.5 70.5z" />
<glyph unicode="|" d="M359 -410l292 1866h164l-292 -1866h-164z" />
<glyph unicode="}" d="M186 -221q62 2 103.5 34.5t67.5 80.5t39.5 104.5t20.5 107.5l21 163q17 131 88 217t190 137q-48 27 -81.5 64.5t-53.5 82.5t-26.5 95.5t-1.5 103.5l21 164q6 47 11.5 101.5t-2.5 102t-37 81t-92 38.5l37 140q92 -4 154.5 -47t98.5 -109t47.5 -147t2.5 -161l-21 -164 q-6 -62 2 -109.5t33 -80t68 -50.5t106 -21l-18 -176q-133 -2 -210 -65.5t-95 -196.5l-22 -163q-12 -91 -45 -174t-88 -147t-131 -104t-174 -44z" />
<glyph unicode="~" d="M17 465q7 68 31.5 131.5t66 112.5t100 78.5t133.5 28.5q88 -2 159.5 -40.5t134.5 -96.5q18 -17 38.5 -33.5t42.5 -29.5t46 -21t51 -8q36 0 64.5 16t49.5 41.5t34.5 57t19.5 63.5l158 -18q-6 -68 -30.5 -133t-66 -116t-100.5 -82t-134 -30q-45 1 -84 12t-75 29.5t-69 43.5 t-64 54q-18 17 -39 33t-43.5 29t-47 20.5t-50.5 7.5q-35 0 -64 -14.5t-50.5 -38.5t-35.5 -55t-20 -62z" />
<glyph unicode="&#xa0;" />
<glyph unicode="&#xa1;" d="M320 -377l175 961h221l-159 -961h-237zM536 961q0 30 10.5 56t28.5 45t43.5 30t55.5 12t55 -8.5t43.5 -27.5t29 -43t10.5 -55t-11 -55t-29.5 -43t-44 -28.5t-55.5 -10.5q-29 -1 -54 8t-43 26t-28.5 41t-10.5 53z" />
<glyph unicode="&#xa2;" d="M127 519l4 37q12 100 49.5 192t98 164.5t142 121t181.5 62.5l39 222h196l-41 -229q68 -16 122.5 -51.5t92.5 -86.5t56.5 -116t14.5 -141l-219 1q3 44 -9 82.5t-36 67.5t-60 46t-82 19q-75 3 -130 -28.5t-93 -82.5t-60 -115t-31 -128l-4 -36q-4 -37 -4.5 -77t4.5 -78.5 t17.5 -73.5t35 -61.5t56 -43t81.5 -17.5q43 -1 84.5 11.5t75 37t57 59t31.5 78.5l220 1q-6 -79 -43.5 -144t-94.5 -113t-128 -77.5t-145 -38.5l-40 -228h-195l42 242q-82 23 -140.5 74t-93.5 120.5t-47.5 153.5t-3.5 174z" />
<glyph unicode="&#xa3;" d="M7 0l34 192l69 -2q33 13 55.5 37t37.5 55t23.5 65t13.5 66l26 191h-157l33 190h151l31 245q12 99 54.5 180.5t108.5 139t152.5 88.5t186.5 29q90 -2 160.5 -31.5t117.5 -82t70 -125t19 -161.5l-230 1q2 43 -6 80.5t-28.5 65t-53 43.5t-79.5 18q-52 1 -93.5 -19 t-71.5 -54.5t-48.5 -79t-24.5 -90.5l-32 -247h303l-33 -190h-296l-24 -185q-18 -132 -105 -229l687 3l-34 -193h-1017z" />
<glyph unicode="&#xa4;" d="M8 128l123 102q-19 66 -25.5 134.5t2.5 137.5q11 85 44 160.5t87 143.5l-93 123l153 135l88 -115q64 39 133.5 62.5t146.5 22.5q70 -1 135 -23t120 -65l137 119l120 -155l-137 -115q22 -69 29 -138.5t-2 -141.5q-11 -80 -41 -151t-78 -136l91 -119l-154 -136l-79 103 q-67 -45 -140.5 -71.5t-155.5 -24.5q-74 1 -142 25t-125 71l-118 -102zM290 499q-7 -59 4.5 -118t41.5 -106.5t77.5 -78t113.5 -32.5q72 -2 134.5 27.5t110 80t78 114.5t38.5 131q7 58 -4.5 116.5t-41 105.5t-77.5 77.5t-113 32.5q-72 2 -134.5 -27t-110.5 -78.5 t-78.5 -113.5t-38.5 -131z" />
<glyph unicode="&#xa5;" d="M81 306l26 146h347l25 143h-348l26 147h285l-264 714h251l203 -641l425 641h274l-510 -714h264l-26 -147h-346l-25 -143h347l-26 -146h-346l-53 -306h-235l54 306h-348z" />
<glyph unicode="&#xa6;" d="M330 -270l138 795h221l-139 -795h-220zM497 698l132 758h221l-132 -758h-221z" />
<glyph unicode="&#xa7;" d="M-38 -51l237 2q-3 -59 13.5 -102.5t48.5 -72.5t78.5 -43.5t102.5 -15.5q45 -1 93.5 8.5t89.5 31t70.5 57t37.5 86.5q8 53 -17.5 89t-67 60.5t-90.5 40.5t-87 28q-78 26 -152.5 58.5t-130.5 80.5t-87.5 115.5t-23.5 162.5q4 51 21.5 93.5t45.5 77.5t64.5 63.5t80.5 51.5 q-52 58 -70.5 127t-11.5 146q8 103 59.5 176t128 119.5t169 67t183.5 19.5q101 -2 183.5 -30t140.5 -82t87.5 -133.5t24.5 -184.5l-232 1q3 53 -10.5 96t-41.5 73.5t-70 48t-96 18.5q-47 1 -95 -8.5t-89 -31.5t-70 -58t-37 -88q-8 -57 15.5 -93t63.5 -60t89 -38.5t91 -27.5 q78 -25 152.5 -57.5t131 -81t88 -116t23.5 -162.5q-4 -51 -21 -93.5t-45 -78t-65 -63.5t-81 -51q52 -57 70.5 -126t12.5 -146q-8 -104 -58.5 -177t-126.5 -118.5t-168.5 -65.5t-184.5 -18q-101 1 -188 27.5t-150.5 78.5t-98 131.5t-30.5 187.5zM314 549q-9 -57 13 -94.5 t61 -62.5t87.5 -41t92.5 -30q37 -12 73.5 -24t72.5 -26q57 26 97.5 68t50.5 107q6 36 -3.5 64.5t-29.5 51t-47.5 39.5t-58.5 30.5t-62 23.5t-58 19q-38 12 -74.5 24t-72.5 26q-59 -26 -95.5 -68t-46.5 -107z" />
<glyph unicode="&#xa8;" d="M384 1363q1 52 36.5 86t87.5 36q25 0 47.5 -8t39 -23.5t26 -37t9.5 -47.5t-10 -48t-27 -38t-39.5 -25t-47.5 -10q-25 0 -47.5 8t-39 23t-26 36.5t-9.5 47.5zM825 1362q1 52 36.5 85.5t86.5 35.5q25 0 47.5 -8t39 -23t26 -36.5t9.5 -47.5q-1 -52 -36.5 -86t-87.5 -36 q-25 0 -47.5 8t-39 23.5t-25.5 37t-9 47.5z" />
<glyph unicode="&#xa9;" d="M78 534q7 75 32.5 147t65.5 135.5t93 117t116.5 91.5t136 58.5t151.5 18.5q74 -2 137 -24t114 -60.5t89 -90.5t62 -112.5t33.5 -128t2.5 -136.5q-7 -75 -32.5 -147t-65 -136t-92.5 -117.5t-116.5 -91.5t-136 -59t-150.5 -19q-111 3 -197.5 50.5t-144 125t-83.5 176 t-15 202.5zM169 534q-10 -85 9 -167t64.5 -147t115.5 -105.5t163 -42.5q99 -3 185 36.5t152.5 106.5t108.5 154.5t53 180.5q10 85 -9.5 166t-64.5 145.5t-115 104.5t-161 42q-99 3 -185.5 -36t-153 -105t-109.5 -152.5t-53 -180.5zM326 496l8 90q6 59 27 112.5t57 93.5 t86.5 63.5t114.5 22.5q112 -2 170 -65.5t53 -173.5l-115 1q1 31 -3.5 56t-17.5 43t-35.5 28t-56.5 10q-40 0 -69 -16.5t-49 -43.5t-31.5 -61t-15.5 -69l-8 -92q-2 -31 1 -63.5t15 -59.5t35.5 -45t61.5 -19q34 -1 58.5 8.5t41.5 27t28 42.5t18 55l111 1q-6 -56 -26.5 -100 t-53.5 -74.5t-78.5 -46.5t-103.5 -14q-61 1 -104.5 26t-71 64.5t-39 91t-8.5 107.5z" />
<glyph unicode="&#xaa;" d="M322 912q3 70 36.5 116.5t84.5 73.5t112.5 38t120.5 11l136 -1l8 53q3 25 0 47.5t-12.5 39.5t-28 27t-46.5 11q-54 2 -92 -22t-52 -76l-170 13q8 61 39 105.5t76 73.5t100 42t112 12q62 -1 110.5 -21t80.5 -56t46.5 -86.5t8.5 -112.5l-49 -314q-8 -46 -9.5 -90.5 t5.5 -91.5h-169q-6 47 -3 94q-45 -51 -101.5 -79.5t-125.5 -27.5q-50 0 -91 15.5t-70 44t-44 69.5t-13 92zM499 916q-3 -23 4 -39t20.5 -25.5t32 -14t38.5 -4.5q54 -1 102.5 26t81.5 67l18 107h-123q-27 -1 -56.5 -7.5t-54.5 -20.5t-42.5 -36t-20.5 -53z" />
<glyph unicode="&#xab;" d="M172 493l2 19l341 391h176l-319 -411l167 -388h-148zM518 493l2 19l341 391h176l-319 -411l167 -388h-148z" />
<glyph unicode="&#xac;" d="M186 634l30 171h811l-75 -431h-196l46 260h-616z" />
<glyph unicode="&#xad;" d="M231 542l34 193h778l-34 -193h-778z" />
<glyph unicode="&#xae;" d="M76 534q7 75 32 146.5t65 135.5t93 117t116.5 91.5t136 59t151.5 18.5q111 -3 197.5 -50.5t143.5 -125t82.5 -176t15.5 -202.5q-8 -75 -33 -147t-64.5 -135.5t-92.5 -117t-116.5 -91.5t-136 -59t-151.5 -19q-74 2 -137.5 24.5t-114.5 61t-89.5 90.5t-62.5 113t-33 128.5 t-2 137.5zM167 533q-10 -85 9.5 -166.5t64.5 -146t115 -105t162 -42.5q99 -3 185.5 36t153 106t108.5 154t53 180q10 85 -9.5 166.5t-64.5 146t-115 104.5t-162 42q-99 3 -185.5 -36t-153 -105t-109 -153t-52.5 -181zM328 232l100 637l198 -1q43 -1 83 -11.5t70 -33 t47 -57.5t14 -84q-2 -34 -16 -60t-35.5 -45.5t-48.5 -34t-56 -26.5l95 -284h-109l-74 252h-116l-40 -252h-112zM495 585h106q21 1 42.5 6.5t39.5 17t30.5 28t16.5 40.5q5 28 -2 45.5t-22 27.5t-36 13.5t-45 4.5l-100 1z" />
<glyph unicode="&#xaf;" d="M363 1299l26 157h705l-25 -157h-706z" />
<glyph unicode="&#xb0;" d="M453 1199q3 55 26.5 106t61.5 89.5t88.5 61t107.5 21.5q52 -1 94 -23.5t72 -58.5t45 -82.5t13 -95.5q-3 -55 -25.5 -105t-60 -88t-87.5 -60t-106 -21q-52 1 -95 22t-74 56.5t-47 81.5t-13 96zM589 1202q-2 -24 4.5 -45.5t20.5 -37.5t34 -25.5t44 -9.5q27 0 50 11t40.5 29 t29 41t14.5 49q2 23 -4 45t-18.5 39.5t-32 28t-44.5 10.5q-27 0 -51 -11.5t-42.5 -30.5t-30.5 -43t-14 -50z" />
<glyph unicode="&#xb1;" d="M82 1l35 193h823l-35 -193h-823zM162 700l31 196h348l60 379h207l-60 -379h335l-31 -196h-334l-61 -390h-207l61 390h-349z" />
<glyph unicode="&#xb2;" d="M325 667l23 132l313 258q19 16 41.5 35.5t42.5 42t35.5 47t19.5 51.5q6 42 -15.5 66t-63.5 24q-58 0 -91.5 -35t-45.5 -88l-181 -1q6 63 33 113.5t69.5 85.5t98 53.5t117.5 17.5q54 -1 103.5 -15.5t86.5 -43.5t58 -73t18 -104q-3 -51 -26 -94.5t-57 -80.5t-75 -69 t-78 -60l-158 -115h352l-26 -147h-594z" />
<glyph unicode="&#xb3;" d="M348 896l177 -1q2 -48 33 -69.5t77 -22.5q24 0 48.5 6.5t44.5 19.5t33.5 32.5t17.5 45.5q4 28 -4 46t-23.5 28.5t-37 15t-45.5 5.5l-90 1l11 128h82q25 1 49 7t44.5 19t34 32.5t17.5 46.5q3 22 -3 37.5t-19 25.5t-31 15t-37 5q-42 1 -74.5 -17.5t-46.5 -57.5l-184 -1 q6 58 33 101t68.5 70.5t93.5 40.5t106 12q51 0 101.5 -12.5t90 -38.5t63.5 -67.5t21 -100.5q-2 -36 -15.5 -64t-35.5 -50t-49.5 -39t-57.5 -30q58 -20 87 -64.5t27 -105.5q-2 -65 -33 -111t-79 -75t-106 -42t-114 -12t-106 16t-87.5 45t-59.5 75t-22 105z" />
<glyph unicode="&#xb4;" d="M468 1205l222 273h282l-312 -273h-192z" />
<glyph unicode="&#xb5;" d="M-4 -416l260 1498h233l-102 -622q-5 -44 -7 -94t9.5 -92t41 -70.5t88.5 -30.5q154 -4 245 121l138 788h233l-187 -1082h-210l14 88q-51 -53 -111.5 -81.5t-135.5 -27.5q-52 0 -100 13t-90 44l-86 -452h-233z" />
<glyph unicode="&#xb6;" d="M272 982q10 110 56 198t118.5 149.5t168 94.5t203.5 33l296 -1l-253 -1456h-203l90 520l-67 1q-101 3 -181 37.5t-134 95t-78.5 144t-15.5 184.5z" />
<glyph unicode="&#xb7;" d="M501 712q0 29 10.5 54t28.5 43.5t43 29t54 11.5t54 -8.5t43 -26.5t28 -41.5t10 -53.5q0 -30 -10.5 -54.5t-28.5 -42.5t-43 -28.5t-55 -11.5q-29 -1 -53.5 8t-42.5 26.5t-28 41.5t-10 53z" />
<glyph unicode="&#xb8;" d="M278 -448l7 137q24 1 49.5 6t47 15.5t37 28.5t20.5 47q4 27 -8.5 42t-33 22.5t-44.5 10t-43 4.5l45 136l169 2l-20 -57q62 -14 93 -57t29 -106q-2 -69 -35.5 -113.5t-84.5 -70t-111.5 -36t-116.5 -11.5z" />
<glyph unicode="&#xb9;" d="M476 1182l27 152l365 115h23l-130 -787h-180l99 568z" />
<glyph unicode="&#xba;" d="M335 1024l13 116q9 75 41.5 137.5t82.5 107.5t116 69t143 22q73 -2 130 -28t95.5 -70.5t56 -105t10.5 -131.5l-13 -117q-9 -75 -41.5 -137.5t-82.5 -107t-116 -68t-142 -21.5q-72 2 -129.5 27.5t-96 70t-56.5 105t-11 131.5zM510 1021q-3 -36 3 -69.5t22 -59t43 -41.5 t68 -17q42 -1 75.5 14t57.5 41t38.5 60.5t19.5 73.5l13 119q3 36 -2.5 69.5t-22 59.5t-44.5 41.5t-68 16.5q-42 1 -75.5 -13.5t-57.5 -40.5t-38.5 -60.5t-19.5 -73.5z" />
<glyph unicode="&#xbb;" d="M139 139l319 410l-167 389h148l220 -388l-2 -20l-341 -391h-177zM489 139l319 410l-167 389h148l220 -388l-2 -20l-341 -391h-177z" />
<glyph unicode="&#xbc;" d="M173 1219l24 137l328 103h21l-117 -708h-162l89 511zM229 307l652 929l120 -73l-653 -929zM507 147l12 117l390 445l165 1l-73 -429l91 1l-26 -135h-84l-26 -147h-164l26 147h-311zM687 282h153l46 218l-14 -18z" />
<glyph unicode="&#xbd;" d="M144 1217l24 137l328 103h21l-117 -708h-162l89 511zM165 307l652 929l120 -73l-653 -929zM528 0l21 119l282 232q17 14 37 32t38 38t32 42t18 46q5 38 -14.5 59.5t-56.5 21.5q-53 0 -83 -31.5t-41 -78.5l-163 -1q6 57 30 102t62.5 76.5t88.5 48.5t106 16q48 -1 92.5 -14 t78 -39t52.5 -66t16 -94q-3 -45 -23.5 -84.5t-51 -72.5t-67.5 -62t-70 -54l-143 -104h317l-23 -132h-535z" />
<glyph unicode="&#xbe;" d="M104 951l159 -1q2 -43 30 -62.5t69 -20.5q22 0 44 6t40 17.5t30 29.5t16 41q4 25 -3.5 41.5t-21.5 25.5t-33 13.5t-41 4.5l-81 1l10 116h74q22 0 43.5 5.5t40 17.5t31 29.5t15.5 41.5q3 20 -2.5 34t-17 23t-28 13.5t-33.5 4.5q-38 1 -67 -16t-42 -52l-165 -1 q5 53 29.5 91.5t61.5 63t84 36.5t96 11q45 0 90.5 -11.5t81 -34.5t57.5 -60.5t19 -90.5q-2 -33 -14 -58t-32 -45t-44.5 -35t-51.5 -27q52 -18 78 -58t24 -95q-1 -58 -29 -99.5t-71.5 -67.5t-95.5 -38t-102 -11q-51 1 -96 14.5t-78.5 40.5t-53.5 67.5t-20 94.5zM303 307 l652 929l120 -73l-653 -929zM546 147l12 117l390 445l165 1l-73 -429l91 1l-26 -135h-84l-26 -147h-164l26 147h-311zM726 282h153l46 218l-14 -18z" />
<glyph unicode="&#xbf;" d="M90 -15q6 75 36.5 137.5t75.5 116.5t99 101.5t108 92.5q29 24 48.5 48.5t33 50.5t21 56.5t12.5 66.5l216 1q-6 -62 -17 -109t-31 -86.5t-51.5 -75.5t-78.5 -76q-36 -30 -74.5 -66t-71.5 -76.5t-57 -86t-30 -94.5q-5 -39 1 -72.5t24 -57.5t48 -38t71 -15q44 -1 80 12 t63 37t45.5 58t26.5 75l234 1q-10 -93 -50 -164.5t-102 -119.5t-142.5 -72.5t-170.5 -22.5q-86 2 -157 27.5t-120.5 73.5t-73.5 117.5t-16 159.5zM568 959q0 57 32.5 92.5t89.5 37.5q57 1 91.5 -32.5t34.5 -89.5q0 -57 -34.5 -90.5t-91.5 -34.5q-56 -2 -89 29.5t-33 87.5z " />
<glyph unicode="&#xc0;" d="M-58 0l712 1456h206l197 -1456h-234l-36 338h-440l-156 -338h-249zM442 543h322l-60 568zM488 1826h252l129 -273h-172z" />
<glyph unicode="&#xc1;" d="M-58 0l712 1456h206l197 -1456h-234l-36 338h-440l-156 -338h-249zM442 543h322l-60 568zM670 1550l222 273h282l-312 -273h-192z" />
<glyph unicode="&#xc2;" d="M-58 0l712 1456h206l197 -1456h-234l-36 338h-440l-156 -338h-249zM442 543h322l-60 568zM458 1597l3 30l293 239h134l235 -241l-3 -29l-182 1l-120 136l-169 -135z" />
<glyph unicode="&#xc3;" d="M-58 0l712 1456h206l197 -1456h-234l-36 338h-440l-156 -338h-249zM442 543h322l-60 568zM446 1632q5 45 22 88.5t45.5 78t68.5 55t90 20.5q37 0 69.5 -15t64 -33t64 -32.5t69.5 -13.5q23 1 41 10t31.5 23.5t23 33t15.5 38.5l116 -29q-4 -45 -20.5 -88.5t-45 -77t-68 -54 t-89.5 -20.5q-38 0 -70.5 15t-63.5 33t-63 32.5t-69 13.5q-23 -1 -41 -10t-31 -23.5t-21.5 -33.5t-14.5 -39z" />
<glyph unicode="&#xc4;" d="M-58 0l712 1456h206l197 -1456h-234l-36 338h-440l-156 -338h-249zM442 543h322l-60 568zM457 1712q1 52 36.5 86t87.5 36q25 0 47.5 -8t39 -23.5t26 -37t9.5 -47.5t-10 -48t-27 -38t-39.5 -25t-47.5 -10q-25 0 -47.5 8t-39 23t-26 36.5t-9.5 47.5zM898 1711 q1 52 36.5 85.5t86.5 35.5q25 0 47.5 -8t39 -23t26 -36.5t9.5 -47.5q-1 -52 -36.5 -86t-87.5 -36q-25 0 -47.5 8t-39 23.5t-25.5 37t-9 47.5z" />
<glyph unicode="&#xc5;" d="M-58 0l712 1456h206l197 -1456h-234l-36 338h-440l-156 -338h-249zM442 543h322l-60 568zM604 1726q1 44 19.5 82t48.5 66t69.5 43.5t83.5 15.5q40 0 74.5 -15t59.5 -40.5t39 -60.5t13 -75q-1 -44 -19 -81.5t-47 -65t-68 -42.5t-82 -15q-40 0 -75.5 14t-61.5 39t-41 59.5 t-13 75.5zM711 1729q-2 -19 3 -36.5t16.5 -31t27.5 -21.5t36 -8q22 0 41 9t33.5 24t23.5 34t12 40q2 19 -2.5 36.5t-14.5 31.5t-25.5 22.5t-36.5 8.5q-22 0 -41.5 -9t-35 -24t-25.5 -35t-12 -41z" />
<glyph unicode="&#xc6;" d="M-73 0l758 1456h597l-35 -194h-278l-71 -412h249l-35 -194h-248l-80 -463h300l-34 -193h-522l59 340h-247l-162 -340h-251zM441 553h183l104 597z" />
<glyph unicode="&#xc7;" d="M87.5 476q-2.5 77 7.5 152l30 199q13 80 38 160t63 153t88.5 135.5t114.5 108t141.5 70.5t168.5 23q108 -2 187.5 -39.5t132.5 -102t80.5 -151t30.5 -187.5h-233q-1 55 -11 106t-34 90t-65.5 63.5t-104.5 26.5q-61 2 -108.5 -17.5t-85 -53.5t-65 -80t-47.5 -97 t-32.5 -104t-20.5 -102l-31 -202q-6 -42 -9.5 -91t-1 -99t13.5 -96.5t34.5 -83.5t61.5 -60t96 -25q65 -2 116 18.5t88.5 58t62.5 88t39 109.5l229 3q-18 -105 -65.5 -192.5t-119.5 -150t-165 -96.5t-201 -31q-88 2 -156 30t-117.5 75t-82 109.5t-49 134t-19 148.5zM331 -446 l7 137q24 1 49.5 6t47 15.5t37 28.5t20.5 47q4 27 -8.5 42t-33 22.5t-44.5 10t-43 4.5l45 136l169 2l-20 -57q62 -14 93 -57t29 -106q-2 -69 -35.5 -113.5t-84.5 -70t-111.5 -36t-116.5 -11.5z" />
<glyph unicode="&#xc8;" d="M53 0l252 1456h909l-35 -198h-673l-72 -411h582l-34 -194h-581l-79 -457h680l-34 -196h-915zM492 1821h252l129 -273h-172z" />
<glyph unicode="&#xc9;" d="M53 0l252 1456h909l-35 -198h-673l-72 -411h582l-34 -194h-581l-79 -457h680l-34 -196h-915zM674 1545l222 273h282l-312 -273h-192z" />
<glyph unicode="&#xca;" d="M53 0l252 1456h909l-35 -198h-673l-72 -411h582l-34 -194h-581l-79 -457h680l-34 -196h-915zM462 1592l3 30l293 239h134l235 -241l-3 -29l-182 1l-120 136l-169 -135z" />
<glyph unicode="&#xcb;" d="M53 0l252 1456h909l-35 -198h-673l-72 -411h582l-34 -194h-581l-79 -457h680l-34 -196h-915zM461 1707q1 52 36.5 86t87.5 36q25 0 47.5 -8t39 -23.5t26 -37t9.5 -47.5t-10 -48t-27 -38t-39.5 -25t-47.5 -10q-25 0 -47.5 8t-39 23t-26 36.5t-9.5 47.5zM902 1706 q1 52 36.5 85.5t86.5 35.5q25 0 47.5 -8t39 -23t26 -36.5t9.5 -47.5q-1 -52 -36.5 -86t-87.5 -36q-25 0 -47.5 8t-39 23.5t-25.5 37t-9 47.5z" />
<glyph unicode="&#xcc;" d="M71 0l35 198h298l184 1059h-299l35 199h841l-35 -199h-305l-184 -1059h306l-35 -198h-841zM438 1826h252l129 -273h-172z" />
<glyph unicode="&#xcd;" d="M71 0l35 198h298l184 1059h-299l35 199h841l-35 -199h-305l-184 -1059h306l-35 -198h-841zM620 1550l222 273h282l-312 -273h-192z" />
<glyph unicode="&#xce;" d="M71 0l35 198h298l184 1059h-299l35 199h841l-35 -199h-305l-184 -1059h306l-35 -198h-841zM408 1597l3 30l293 239h134l235 -241l-3 -29l-182 1l-120 136l-169 -135z" />
<glyph unicode="&#xcf;" d="M71 0l35 198h298l184 1059h-299l35 199h841l-35 -199h-305l-184 -1059h306l-35 -198h-841zM407 1712q1 52 36.5 86t87.5 36q25 0 47.5 -8t39 -23.5t26 -37t9.5 -47.5t-10 -48t-27 -38t-39.5 -25t-47.5 -10q-25 0 -47.5 8t-39 23t-26 36.5t-9.5 47.5zM848 1711 q1 52 36.5 85.5t86.5 35.5q25 0 47.5 -8t39 -23t26 -36.5t9.5 -47.5q-1 -52 -36.5 -86t-87.5 -36q-25 0 -47.5 8t-39 23.5t-25.5 37t-9 47.5z" />
<glyph unicode="&#xd0;" horiz-adv-x="1232" d="M-25 651l30 170h195l111 635l333 -1q144 -3 250 -58t172 -147t91.5 -212.5t8.5 -255.5l-15 -110q-22 -142 -82.5 -265t-154 -213.5t-217.5 -142t-273 -51.5h-366l113 651h-196zM330 193l103 -1q106 0 188.5 38.5t142 104t96.5 152.5t52 185l17 113q11 84 4 167.5 t-40 150.5t-95.5 110.5t-162.5 47.5l-120 1l-76 -441h215l-31 -170h-214z" />
<glyph unicode="&#xd1;" d="M22 0l253 1456h232l286 -1008l178 1008h237l-253 -1456h-230l-289 1011l-176 -1011h-238zM415 1632q5 45 22 88.5t45.5 78t68.5 55t90 20.5q37 0 69.5 -15t64 -33t64 -32.5t69.5 -13.5q23 1 41 10t31.5 23.5t23 33t15.5 38.5l116 -29q-4 -45 -20.5 -88.5t-45 -77t-68 -54 t-89.5 -20.5q-38 0 -70.5 15t-63.5 33t-63 32.5t-69 13.5q-23 -1 -41 -10t-31 -23.5t-21.5 -33.5t-14.5 -39z" />
<glyph unicode="&#xd2;" d="M88 484.5q-2 76.5 8 149.5l29 186q12 78 36.5 158t61 153.5t85.5 137.5t112 110.5t139 72.5t167 24q87 -2 154.5 -31t117 -77t81.5 -112t48.5 -136.5t19 -149t-7.5 -150.5l-29 -185q-13 -79 -37.5 -159t-61.5 -153.5t-87 -137t-114 -110t-141 -72t-168 -23.5 q-87 2 -153.5 31t-115 77.5t-79.5 112t-47 135.5t-18 148.5zM320.5 447.5q2.5 -49.5 13.5 -96.5t33.5 -84t59.5 -60.5t93 -25.5q59 -2 106.5 17.5t84 54t64 81t47.5 97.5t32.5 103.5t20.5 99.5l29 189q5 40 8.5 88.5t0 98t-15 96t-35 83t-61 59.5t-93.5 25 q-59 2 -105.5 -17.5t-82.5 -54t-62.5 -80.5t-45.5 -97t-31.5 -103t-20.5 -99l-29 -189q-6 -39 -9.5 -87.5t-1 -98zM486 1847h252l129 -273h-172z" />
<glyph unicode="&#xd3;" d="M88 484.5q-2 76.5 8 149.5l29 186q12 78 36.5 158t61 153.5t85.5 137.5t112 110.5t139 72.5t167 24q87 -2 154.5 -31t117 -77t81.5 -112t48.5 -136.5t19 -149t-7.5 -150.5l-29 -185q-13 -79 -37.5 -159t-61.5 -153.5t-87 -137t-114 -110t-141 -72t-168 -23.5 q-87 2 -153.5 31t-115 77.5t-79.5 112t-47 135.5t-18 148.5zM320.5 447.5q2.5 -49.5 13.5 -96.5t33.5 -84t59.5 -60.5t93 -25.5q59 -2 106.5 17.5t84 54t64 81t47.5 97.5t32.5 103.5t20.5 99.5l29 189q5 40 8.5 88.5t0 98t-15 96t-35 83t-61 59.5t-93.5 25 q-59 2 -105.5 -17.5t-82.5 -54t-62.5 -80.5t-45.5 -97t-31.5 -103t-20.5 -99l-29 -189q-6 -39 -9.5 -87.5t-1 -98zM668 1571l222 273h282l-312 -273h-192z" />
<glyph unicode="&#xd4;" d="M88 484.5q-2 76.5 8 149.5l29 186q12 78 36.5 158t61 153.5t85.5 137.5t112 110.5t139 72.5t167 24q87 -2 154.5 -31t117 -77t81.5 -112t48.5 -136.5t19 -149t-7.5 -150.5l-29 -185q-13 -79 -37.5 -159t-61.5 -153.5t-87 -137t-114 -110t-141 -72t-168 -23.5 q-87 2 -153.5 31t-115 77.5t-79.5 112t-47 135.5t-18 148.5zM320.5 447.5q2.5 -49.5 13.5 -96.5t33.5 -84t59.5 -60.5t93 -25.5q59 -2 106.5 17.5t84 54t64 81t47.5 97.5t32.5 103.5t20.5 99.5l29 189q5 40 8.5 88.5t0 98t-15 96t-35 83t-61 59.5t-93.5 25 q-59 2 -105.5 -17.5t-82.5 -54t-62.5 -80.5t-45.5 -97t-31.5 -103t-20.5 -99l-29 -189q-6 -39 -9.5 -87.5t-1 -98zM456 1618l3 30l293 239h134l235 -241l-3 -29l-182 1l-120 136l-169 -135z" />
<glyph unicode="&#xd5;" d="M88 484.5q-2 76.5 8 149.5l29 186q12 78 36.5 158t61 153.5t85.5 137.5t112 110.5t139 72.5t167 24q87 -2 154.5 -31t117 -77t81.5 -112t48.5 -136.5t19 -149t-7.5 -150.5l-29 -185q-13 -79 -37.5 -159t-61.5 -153.5t-87 -137t-114 -110t-141 -72t-168 -23.5 q-87 2 -153.5 31t-115 77.5t-79.5 112t-47 135.5t-18 148.5zM320.5 447.5q2.5 -49.5 13.5 -96.5t33.5 -84t59.5 -60.5t93 -25.5q59 -2 106.5 17.5t84 54t64 81t47.5 97.5t32.5 103.5t20.5 99.5l29 189q5 40 8.5 88.5t0 98t-15 96t-35 83t-61 59.5t-93.5 25 q-59 2 -105.5 -17.5t-82.5 -54t-62.5 -80.5t-45.5 -97t-31.5 -103t-20.5 -99l-29 -189q-6 -39 -9.5 -87.5t-1 -98zM444 1653q5 45 22 88.5t45.5 78t68.5 55t90 20.5q37 0 69.5 -15t64 -33t64 -32.5t69.5 -13.5q23 1 41 10t31.5 23.5t23 33t15.5 38.5l116 -29 q-4 -45 -20.5 -88.5t-45 -77t-68 -54t-89.5 -20.5q-38 0 -70.5 15t-63.5 33t-63 32.5t-69 13.5q-23 -1 -41 -10t-31 -23.5t-21.5 -33.5t-14.5 -39z" />
<glyph unicode="&#xd6;" d="M88 484.5q-2 76.5 8 149.5l29 186q12 78 36.5 158t61 153.5t85.5 137.5t112 110.5t139 72.5t167 24q87 -2 154.5 -31t117 -77t81.5 -112t48.5 -136.5t19 -149t-7.5 -150.5l-29 -185q-13 -79 -37.5 -159t-61.5 -153.5t-87 -137t-114 -110t-141 -72t-168 -23.5 q-87 2 -153.5 31t-115 77.5t-79.5 112t-47 135.5t-18 148.5zM320.5 447.5q2.5 -49.5 13.5 -96.5t33.5 -84t59.5 -60.5t93 -25.5q59 -2 106.5 17.5t84 54t64 81t47.5 97.5t32.5 103.5t20.5 99.5l29 189q5 40 8.5 88.5t0 98t-15 96t-35 83t-61 59.5t-93.5 25 q-59 2 -105.5 -17.5t-82.5 -54t-62.5 -80.5t-45.5 -97t-31.5 -103t-20.5 -99l-29 -189q-6 -39 -9.5 -87.5t-1 -98zM455 1733q1 52 36.5 86t87.5 36q25 0 47.5 -8t39 -23.5t26 -37t9.5 -47.5t-10 -48t-27 -38t-39.5 -25t-47.5 -10q-25 0 -47.5 8t-39 23t-26 36.5t-9.5 47.5z M896 1732q1 52 36.5 85.5t86.5 35.5q25 0 47.5 -8t39 -23t26 -36.5t9.5 -47.5q-1 -52 -36.5 -86t-87.5 -36q-25 0 -47.5 8t-39 23.5t-25.5 37t-9 47.5z" />
<glyph unicode="&#xd7;" d="M122 372l364 324l-252 322l159 139l250 -321l363 321l125 -157l-364 -323l252 -323l-159 -139l-251 321l-362 -321z" />
<glyph unicode="&#xd8;" d="M-74 -95l222 302q-23 47 -37 99.5t-20 107t-5.5 110.5t8.5 110l29 186q12 78 36.5 158t61 153.5t85.5 137.5t112 110.5t139 72.5t167 24q89 -2 156.5 -32t117.5 -80l113 154h177l-204 -278q22 -47 35.5 -98.5t20 -105.5t5.5 -108.5t-8 -107.5l-29 -185 q-13 -79 -37.5 -159t-61.5 -153.5t-87.5 -137t-113.5 -110t-140.5 -72t-168.5 -23.5q-86 2 -151.5 29.5t-113.5 75.5l-132 -180h-176zM319 440l545 742q-23 39 -61.5 64t-96.5 27q-59 2 -105.5 -17.5t-82.5 -54t-62.5 -80.5t-45.5 -97t-31.5 -103t-20.5 -99l-29 -189 q-6 -42 -9.5 -91.5t-0.5 -101.5zM366 265q23 -37 59.5 -59.5t92.5 -24.5q59 -2 106.5 17.5t84 54t64 81t47.5 97.5t32.5 103.5t20.5 99.5l29 189q5 39 8.5 86.5t0.5 95.5z" />
<glyph unicode="&#xd9;" d="M108 480l168 976h230l-164 -976q-6 -50 -1.5 -103t24 -97t57.5 -73t99 -31q66 -3 116.5 23t86.5 69.5t58.5 99.5t31.5 114l168 974h231l-165 -973q-16 -107 -61 -199.5t-115.5 -161t-164 -106.5t-206.5 -36q-105 2 -183.5 43.5t-128.5 110t-71 158t-10 188.5zM499 1818 h252l129 -273h-172z" />
<glyph unicode="&#xda;" d="M108 480l168 976h230l-164 -976q-6 -50 -1.5 -103t24 -97t57.5 -73t99 -31q66 -3 116.5 23t86.5 69.5t58.5 99.5t31.5 114l168 974h231l-165 -973q-16 -107 -61 -199.5t-115.5 -161t-164 -106.5t-206.5 -36q-105 2 -183.5 43.5t-128.5 110t-71 158t-10 188.5zM681 1542 l222 273h282l-312 -273h-192z" />
<glyph unicode="&#xdb;" d="M108 480l168 976h230l-164 -976q-6 -50 -1.5 -103t24 -97t57.5 -73t99 -31q66 -3 116.5 23t86.5 69.5t58.5 99.5t31.5 114l168 974h231l-165 -973q-16 -107 -61 -199.5t-115.5 -161t-164 -106.5t-206.5 -36q-105 2 -183.5 43.5t-128.5 110t-71 158t-10 188.5zM469 1589 l3 30l293 239h134l235 -241l-3 -29l-182 1l-120 136l-169 -135z" />
<glyph unicode="&#xdc;" d="M108 480l168 976h230l-164 -976q-6 -50 -1.5 -103t24 -97t57.5 -73t99 -31q66 -3 116.5 23t86.5 69.5t58.5 99.5t31.5 114l168 974h231l-165 -973q-16 -107 -61 -199.5t-115.5 -161t-164 -106.5t-206.5 -36q-105 2 -183.5 43.5t-128.5 110t-71 158t-10 188.5zM468 1704 q1 52 36.5 86t87.5 36q25 0 47.5 -8t39 -23.5t26 -37t9.5 -47.5t-10 -48t-27 -38t-39.5 -25t-47.5 -10q-25 0 -47.5 8t-39 23t-26 36.5t-9.5 47.5zM909 1703q1 52 36.5 85.5t86.5 35.5q25 0 47.5 -8t39 -23t26 -36.5t9.5 -47.5q-1 -52 -36.5 -86t-87.5 -36q-25 0 -47.5 8 t-39 23.5t-25.5 37t-9 47.5z" />
<glyph unicode="&#xdd;" d="M197 1456h251l172 -694l415 694h271l-610 -945l-90 -511h-228l93 541zM658 1550l222 273h282l-312 -273h-192z" />
<glyph unicode="&#xde;" d="M40 0l253 1456h234l-49 -281l226 -1q96 -3 179 -32t142.5 -83t90.5 -133t22 -181q-10 -112 -59.5 -195.5t-126 -139t-173.5 -83.5t-201 -28l-251 1l-53 -300h-234zM359 492l228 -2q59 0 113 16.5t96.5 49t70.5 79.5t36 109q7 54 -4.5 97t-39 73.5t-69 48t-94.5 19.5 l-251 1z" />
<glyph unicode="&#xdf;" d="M53 0l185 1079q14 98 51.5 186.5t99 155.5t145.5 105t191 35q76 -2 138.5 -27t105.5 -70t64 -108t15 -141q-5 -60 -29 -108.5t-53.5 -94t-56 -92t-36.5 -102.5q-7 -42 5 -80.5t34 -76t49.5 -74t51 -75.5t38.5 -80.5t12 -88.5q-5 -86 -37.5 -154.5t-86 -116t-125.5 -72 t-157 -23.5q-71 1 -145 14.5t-137 50.5l67 194q46 -31 101 -50t112 -17q74 1 120.5 47t57.5 118q6 44 -7 83.5t-36 76t-51 72.5t-51.5 74.5t-38 81t-9.5 92.5q3 38 16 71t31.5 63.5t39 59.5t39 59.5t32.5 63t18 69.5q3 29 -1.5 59t-18.5 54.5t-37 40.5t-57 18 q-58 3 -99.5 -25.5t-69 -73t-43 -97t-22.5 -98.5l-182 -1078h-233z" />
<glyph unicode="&#xe0;" d="M80 295q4 71 28.5 126t63.5 95.5t90.5 68.5t109.5 45.5t119.5 24.5t122.5 7l177 -1l12 73q6 44 -4.5 78.5t-34.5 58t-59 36t-78 13.5q-38 1 -72 -7.5t-62 -27t-47 -46.5t-27 -67l-233 -1q7 86 52 149t112 104t147 60.5t157 18.5q84 -2 157.5 -26.5t126.5 -71.5t80.5 -116 t18.5 -159l-79 -483q-9 -57 -12 -115t15 -114l-2 -18h-233q-8 26 -9 52t0 53q-66 -59 -143.5 -92.5t-167.5 -31.5q-68 1 -129 23t-106 62.5t-70 98t-21 130.5zM317 321q-5 -37 4.5 -64.5t29.5 -46t49 -28t64 -10.5q80 -2 150 34t119 99l37 204l-135 1q-49 0 -102 -8 t-99 -28.5t-78 -57.5t-39 -95zM412 1504h252l129 -273h-172z" />
<glyph unicode="&#xe1;" d="M80 295q4 71 28.5 126t63.5 95.5t90.5 68.5t109.5 45.5t119.5 24.5t122.5 7l177 -1l12 73q6 44 -4.5 78.5t-34.5 58t-59 36t-78 13.5q-38 1 -72 -7.5t-62 -27t-47 -46.5t-27 -67l-233 -1q7 86 52 149t112 104t147 60.5t157 18.5q84 -2 157.5 -26.5t126.5 -71.5t80.5 -116 t18.5 -159l-79 -483q-9 -57 -12 -115t15 -114l-2 -18h-233q-8 26 -9 52t0 53q-66 -59 -143.5 -92.5t-167.5 -31.5q-68 1 -129 23t-106 62.5t-70 98t-21 130.5zM317 321q-5 -37 4.5 -64.5t29.5 -46t49 -28t64 -10.5q80 -2 150 34t119 99l37 204l-135 1q-49 0 -102 -8 t-99 -28.5t-78 -57.5t-39 -95zM594 1228l222 273h282l-312 -273h-192z" />
<glyph unicode="&#xe2;" d="M80 295q4 71 28.5 126t63.5 95.5t90.5 68.5t109.5 45.5t119.5 24.5t122.5 7l177 -1l12 73q6 44 -4.5 78.5t-34.5 58t-59 36t-78 13.5q-38 1 -72 -7.5t-62 -27t-47 -46.5t-27 -67l-233 -1q7 86 52 149t112 104t147 60.5t157 18.5q84 -2 157.5 -26.5t126.5 -71.5t80.5 -116 t18.5 -159l-79 -483q-9 -57 -12 -115t15 -114l-2 -18h-233q-8 26 -9 52t0 53q-66 -59 -143.5 -92.5t-167.5 -31.5q-68 1 -129 23t-106 62.5t-70 98t-21 130.5zM317 321q-5 -37 4.5 -64.5t29.5 -46t49 -28t64 -10.5q80 -2 150 34t119 99l37 204l-135 1q-49 0 -102 -8 t-99 -28.5t-78 -57.5t-39 -95zM382 1275l3 30l293 239h134l235 -241l-3 -29l-182 1l-120 136l-169 -135z" />
<glyph unicode="&#xe3;" d="M80 295q4 71 28.5 126t63.5 95.5t90.5 68.5t109.5 45.5t119.5 24.5t122.5 7l177 -1l12 73q6 44 -4.5 78.5t-34.5 58t-59 36t-78 13.5q-38 1 -72 -7.5t-62 -27t-47 -46.5t-27 -67l-233 -1q7 86 52 149t112 104t147 60.5t157 18.5q84 -2 157.5 -26.5t126.5 -71.5t80.5 -116 t18.5 -159l-79 -483q-9 -57 -12 -115t15 -114l-2 -18h-233q-8 26 -9 52t0 53q-66 -59 -143.5 -92.5t-167.5 -31.5q-68 1 -129 23t-106 62.5t-70 98t-21 130.5zM317 321q-5 -37 4.5 -64.5t29.5 -46t49 -28t64 -10.5q80 -2 150 34t119 99l37 204l-135 1q-49 0 -102 -8 t-99 -28.5t-78 -57.5t-39 -95zM370 1310q5 45 22 88.5t45.5 78t68.5 55t90 20.5q37 0 69.5 -15t64 -33t64 -32.5t69.5 -13.5q23 1 41 10t31.5 23.5t23 33t15.5 38.5l116 -29q-4 -45 -20.5 -88.5t-45 -77t-68 -54t-89.5 -20.5q-38 0 -70.5 15t-63.5 33t-63 32.5t-69 13.5 q-23 -1 -41 -10t-31 -23.5t-21.5 -33.5t-14.5 -39z" />
<glyph unicode="&#xe4;" d="M80 295q4 71 28.5 126t63.5 95.5t90.5 68.5t109.5 45.5t119.5 24.5t122.5 7l177 -1l12 73q6 44 -4.5 78.5t-34.5 58t-59 36t-78 13.5q-38 1 -72 -7.5t-62 -27t-47 -46.5t-27 -67l-233 -1q7 86 52 149t112 104t147 60.5t157 18.5q84 -2 157.5 -26.5t126.5 -71.5t80.5 -116 t18.5 -159l-79 -483q-9 -57 -12 -115t15 -114l-2 -18h-233q-8 26 -9 52t0 53q-66 -59 -143.5 -92.5t-167.5 -31.5q-68 1 -129 23t-106 62.5t-70 98t-21 130.5zM317 321q-5 -37 4.5 -64.5t29.5 -46t49 -28t64 -10.5q80 -2 150 34t119 99l37 204l-135 1q-49 0 -102 -8 t-99 -28.5t-78 -57.5t-39 -95zM382 1390q1 52 36.5 86t87.5 36q25 0 47.5 -8t39 -23.5t26 -37t9.5 -47.5t-10 -48t-27 -38t-39.5 -25t-47.5 -10q-25 0 -47.5 8t-39 23t-26 36.5t-9.5 47.5zM823 1389q1 52 36.5 85.5t86.5 35.5q25 0 47.5 -8t39 -23t26 -36.5t9.5 -47.5 q-1 -52 -36.5 -86t-87.5 -36q-25 0 -47.5 8t-39 23.5t-25.5 37t-9 47.5z" />
<glyph unicode="&#xe5;" d="M80 295q4 71 28.5 126t63.5 95.5t90.5 68.5t109.5 45.5t119.5 24.5t122.5 7l177 -1l12 73q6 44 -4.5 78.5t-34.5 58t-59 36t-78 13.5q-38 1 -72 -7.5t-62 -27t-47 -46.5t-27 -67l-233 -1q7 86 52 149t112 104t147 60.5t157 18.5q84 -2 157.5 -26.5t126.5 -71.5t80.5 -116 t18.5 -159l-79 -483q-9 -57 -12 -115t15 -114l-2 -18h-233q-8 26 -9 52t0 53q-66 -59 -143.5 -92.5t-167.5 -31.5q-68 1 -129 23t-106 62.5t-70 98t-21 130.5zM317 321q-5 -37 4.5 -64.5t29.5 -46t49 -28t64 -10.5q80 -2 150 34t119 99l37 204l-135 1q-49 0 -102 -8 t-99 -28.5t-78 -57.5t-39 -95zM528 1404q1 44 19.5 82t48.5 66t69.5 43.5t83.5 15.5q40 0 74.5 -15t59.5 -40.5t39 -60.5t13 -75q-1 -44 -19 -81.5t-47 -65t-68 -42.5t-82 -15q-40 0 -75.5 14t-61.5 39t-41 59.5t-13 75.5zM635 1407q-2 -19 3 -36.5t16.5 -31t27.5 -21.5 t36 -8q22 0 41 9t33.5 24t23.5 34t12 40q2 19 -2.5 36.5t-14.5 31.5t-25.5 22.5t-36.5 8.5q-22 0 -41.5 -9t-35 -24t-25.5 -35t-12 -41z" />
<glyph unicode="&#xe6;" d="M-10 283q6 97 46.5 165.5t105 112t147 63t170.5 18.5h29l24 133q3 21 3 44.5t-7 43.5t-22 33t-42 14q-29 1 -50 -10t-35.5 -29t-23 -41t-12.5 -48l-224 9q7 73 35.5 131.5t75 99t108.5 62t135 20.5q62 -2 120 -21t100 -67q52 42 109.5 64.5t124.5 20.5q80 -2 135 -36 t87 -88t43 -122.5t4 -139.5l-38 -243h-461l-12 -86q-5 -45 0 -83.5t23 -67t50.5 -45t82.5 -17.5q54 -1 100 15.5t94 39.5l34 -170q-29 -23 -64 -37.5t-72.5 -23.5t-75.5 -12.5t-74 -3.5q-38 0 -75.5 7.5t-70.5 22.5t-61 39t-48 58q-51 -57 -113.5 -93t-142.5 -35 q-67 1 -117.5 24.5t-84 64t-49 95.5t-11.5 119zM221 279q-6 -49 17.5 -83.5t75.5 -34.5q29 0 54 14t48 30l54 273h-18q-43 -2 -82.5 -16.5t-70.5 -40.5t-51.5 -62t-26.5 -80zM698 641l251 1l17 123q2 25 -0.5 50.5t-13 46.5t-29.5 34.5t-49 14.5q-43 1 -72 -18t-47.5 -49.5 t-29 -67t-16.5 -70.5z" />
<glyph unicode="&#xe7;" d="M113 519l4 37q13 112 58 212.5t117.5 175.5t170.5 118t217 40q89 -2 162.5 -32.5t125 -84t78.5 -127.5t22 -164l-219 1q3 44 -9 82.5t-36 67.5t-60 46t-82 19q-75 3 -130 -28.5t-93 -82.5t-60 -115t-31 -128l-4 -36q-4 -37 -4.5 -77t4.5 -78.5t17.5 -73.5t35 -61.5 t56 -43t81.5 -17.5q43 -1 84.5 11.5t75 37t57 59t31.5 78.5l220 1q-7 -88 -52 -158.5t-113 -119.5t-151 -75t-165 -24q-116 2 -198 47.5t-132.5 120t-69.5 171t-8 201.5zM342 -446l7 137q24 1 49.5 6t47 15.5t37 28.5t20.5 47q4 27 -8.5 42t-33 22.5t-44.5 10t-43 4.5 l45 136l169 2l-20 -57q62 -14 93 -57t29 -106q-2 -69 -35.5 -113.5t-84.5 -70t-111.5 -36t-116.5 -11.5z" />
<glyph unicode="&#xe8;" d="M104 499l5 42q8 73 32 144t61.5 134t87.5 115.5t111.5 90.5t132 58.5t149.5 18.5q114 -3 193.5 -48t127 -119t64 -169.5t3.5 -198.5l-15 -101h-722q-5 -58 8.5 -110.5t44 -93t77 -65t108.5 -25.5q88 -3 165.5 33t137.5 99l117 -122q-37 -53 -87.5 -91.5t-109.5 -63.5 t-122.5 -36.5t-125.5 -10.5q-110 2 -197 43.5t-144.5 111.5t-84.5 163.5t-17 200.5zM359 642l492 -1l4 21q7 49 -2 93t-34 78t-64 54.5t-90 22.5q-60 2 -108 -21t-85.5 -61t-65.5 -87t-47 -99zM412 1505h252l129 -273h-172z" />
<glyph unicode="&#xe9;" d="M104 499l5 42q8 73 32 144t61.5 134t87.5 115.5t111.5 90.5t132 58.5t149.5 18.5q114 -3 193.5 -48t127 -119t64 -169.5t3.5 -198.5l-15 -101h-722q-5 -58 8.5 -110.5t44 -93t77 -65t108.5 -25.5q88 -3 165.5 33t137.5 99l117 -122q-37 -53 -87.5 -91.5t-109.5 -63.5 t-122.5 -36.5t-125.5 -10.5q-110 2 -197 43.5t-144.5 111.5t-84.5 163.5t-17 200.5zM359 642l492 -1l4 21q7 49 -2 93t-34 78t-64 54.5t-90 22.5q-60 2 -108 -21t-85.5 -61t-65.5 -87t-47 -99zM594 1229l222 273h282l-312 -273h-192z" />
<glyph unicode="&#xea;" d="M104 499l5 42q8 73 32 144t61.5 134t87.5 115.5t111.5 90.5t132 58.5t149.5 18.5q114 -3 193.5 -48t127 -119t64 -169.5t3.5 -198.5l-15 -101h-722q-5 -58 8.5 -110.5t44 -93t77 -65t108.5 -25.5q88 -3 165.5 33t137.5 99l117 -122q-37 -53 -87.5 -91.5t-109.5 -63.5 t-122.5 -36.5t-125.5 -10.5q-110 2 -197 43.5t-144.5 111.5t-84.5 163.5t-17 200.5zM359 642l492 -1l4 21q7 49 -2 93t-34 78t-64 54.5t-90 22.5q-60 2 -108 -21t-85.5 -61t-65.5 -87t-47 -99zM382 1276l3 30l293 239h134l235 -241l-3 -29l-182 1l-120 136l-169 -135z" />
<glyph unicode="&#xeb;" d="M104 499l5 42q8 73 32 144t61.5 134t87.5 115.5t111.5 90.5t132 58.5t149.5 18.5q114 -3 193.5 -48t127 -119t64 -169.5t3.5 -198.5l-15 -101h-722q-5 -58 8.5 -110.5t44 -93t77 -65t108.5 -25.5q88 -3 165.5 33t137.5 99l117 -122q-37 -53 -87.5 -91.5t-109.5 -63.5 t-122.5 -36.5t-125.5 -10.5q-110 2 -197 43.5t-144.5 111.5t-84.5 163.5t-17 200.5zM359 642l492 -1l4 21q7 49 -2 93t-34 78t-64 54.5t-90 22.5q-60 2 -108 -21t-85.5 -61t-65.5 -87t-47 -99zM382 1391q1 52 36.5 86t87.5 36q25 0 47.5 -8t39 -23.5t26 -37t9.5 -47.5 t-10 -48t-27 -38t-39.5 -25t-47.5 -10q-25 0 -47.5 8t-39 23t-26 36.5t-9.5 47.5zM823 1390q1 52 36.5 85.5t86.5 35.5q25 0 47.5 -8t39 -23t26 -36.5t9.5 -47.5q-1 -52 -36.5 -86t-87.5 -36q-25 0 -47.5 8t-39 23.5t-25.5 37t-9 47.5z" />
<glyph unicode="&#xec;" d="M88 0l35 198h333l119 685h-334l35 199h569l-153 -884h320l-35 -198h-889zM463 1478h252l129 -273h-172z" />
<glyph unicode="&#xed;" d="M88 0l35 198h333l119 685h-334l35 199h569l-153 -884h320l-35 -198h-889zM645 1203l222 273h282l-312 -273h-192z" />
<glyph unicode="&#xee;" d="M88 0l35 198h333l119 685h-334l35 199h569l-153 -884h320l-35 -198h-889zM433 1249l3 30l293 239h134l235 -241l-3 -29l-182 1l-120 136l-169 -135z" />
<glyph unicode="&#xef;" d="M88 0l35 198h333l119 685h-334l35 199h569l-153 -884h320l-35 -198h-889zM432 1364q1 52 36.5 86t87.5 36q25 0 47.5 -8t39 -23.5t26 -37t9.5 -47.5t-10 -48t-27 -38t-39.5 -25t-47.5 -10q-25 0 -47.5 8t-39 23t-26 36.5t-9.5 47.5zM873 1363q1 52 36.5 85.5t86.5 35.5 q25 0 47.5 -8t39 -23t26 -36.5t9.5 -47.5q-1 -52 -36.5 -86t-87.5 -36q-25 0 -47.5 8t-39 23.5t-25.5 37t-9 47.5z" />
<glyph unicode="&#xf0;" d="M31 460q10 109 55 204t117 164.5t167.5 108.5t208.5 36q73 -2 138.5 -28.5t119.5 -74.5q0 78 -19.5 150t-61.5 138l-273 -144l-61 118l239 124q-29 23 -60.5 39t-66.5 29l93 191q71 -21 134 -56.5t118 -86.5l233 123l61 -119l-206 -103q74 -152 95.5 -308.5t-0.5 -323.5 l-9 -64q-11 -77 -35.5 -152t-63 -142.5t-89.5 -124t-114 -97t-137.5 -62.5t-159.5 -20q-101 3 -183 41t-138.5 102.5t-83.5 151t-18 186.5zM264 460q-6 -54 3.5 -105.5t36 -92t69 -66t101.5 -27.5q80 -3 139.5 33.5t101.5 94.5t66.5 129t34.5 138l12 80l4 33 q-19 33 -49 54.5t-65.5 34.5t-73.5 18.5t-73 5.5q-66 0 -120 -29t-93 -76t-63 -106t-31 -119z" />
<glyph unicode="&#xf1;" d="M46 0l188 1082l209 1l-20 -152q66 78 150.5 125.5t189.5 45.5q93 -2 155 -37.5t97.5 -94t47 -135t2.5 -159.5l-113 -676h-233l112 673q6 50 1 92t-24 73t-54 49t-90 19q-39 1 -74 -8t-65.5 -26.5t-58 -41.5t-51.5 -53l-135 -777h-234zM366 1310q5 45 22 88.5t45.5 78 t68.5 55t90 20.5q37 0 69.5 -15t64 -33t64 -32.5t69.5 -13.5q23 1 41 10t31.5 23.5t23 33t15.5 38.5l116 -29q-4 -45 -20.5 -88.5t-45 -77t-68 -54t-89.5 -20.5q-38 0 -70.5 15t-63.5 33t-63 32.5t-69 13.5q-23 -1 -41 -10t-31 -23.5t-21.5 -33.5t-14.5 -39z" />
<glyph unicode="&#xf2;" d="M97 523l2 21q14 112 58.5 214.5t117 179.5t171 122t219.5 42q115 -3 197.5 -49.5t133 -122.5t70 -173.5t8.5 -202.5l-2 -22q-14 -112 -59 -213.5t-117.5 -178t-171 -120.5t-218.5 -41q-114 3 -196.5 49t-133.5 121t-70.5 172t-8.5 202zM325.5 446q-0.5 -40 5.5 -79 t19 -74t36 -62t56.5 -44t80.5 -18q75 -3 130.5 30t93.5 86t60.5 119t30.5 129l2 20q6 55 3 117t-22.5 114.5t-61 88t-111.5 37.5q-75 2 -131 -31t-94 -86.5t-60.5 -119.5t-30.5 -129l-2 -21q-4 -37 -4.5 -77zM419 1504h252l129 -273h-172z" />
<glyph unicode="&#xf3;" d="M97 523l2 21q14 112 58.5 214.5t117 179.5t171 122t219.5 42q115 -3 197.5 -49.5t133 -122.5t70 -173.5t8.5 -202.5l-2 -22q-14 -112 -59 -213.5t-117.5 -178t-171 -120.5t-218.5 -41q-114 3 -196.5 49t-133.5 121t-70.5 172t-8.5 202zM325.5 446q-0.5 -40 5.5 -79 t19 -74t36 -62t56.5 -44t80.5 -18q75 -3 130.5 30t93.5 86t60.5 119t30.5 129l2 20q6 55 3 117t-22.5 114.5t-61 88t-111.5 37.5q-75 2 -131 -31t-94 -86.5t-60.5 -119.5t-30.5 -129l-2 -21q-4 -37 -4.5 -77zM601 1228l222 273h282l-312 -273h-192z" />
<glyph unicode="&#xf4;" d="M97 523l2 21q14 112 58.5 214.5t117 179.5t171 122t219.5 42q115 -3 197.5 -49.5t133 -122.5t70 -173.5t8.5 -202.5l-2 -22q-14 -112 -59 -213.5t-117.5 -178t-171 -120.5t-218.5 -41q-114 3 -196.5 49t-133.5 121t-70.5 172t-8.5 202zM325.5 446q-0.5 -40 5.5 -79 t19 -74t36 -62t56.5 -44t80.5 -18q75 -3 130.5 30t93.5 86t60.5 119t30.5 129l2 20q6 55 3 117t-22.5 114.5t-61 88t-111.5 37.5q-75 2 -131 -31t-94 -86.5t-60.5 -119.5t-30.5 -129l-2 -21q-4 -37 -4.5 -77zM389 1275l3 30l293 239h134l235 -241l-3 -29l-182 1l-120 136 l-169 -135z" />
<glyph unicode="&#xf5;" d="M97 523l2 21q14 112 58.5 214.5t117 179.5t171 122t219.5 42q115 -3 197.5 -49.5t133 -122.5t70 -173.5t8.5 -202.5l-2 -22q-14 -112 -59 -213.5t-117.5 -178t-171 -120.5t-218.5 -41q-114 3 -196.5 49t-133.5 121t-70.5 172t-8.5 202zM325.5 446q-0.5 -40 5.5 -79 t19 -74t36 -62t56.5 -44t80.5 -18q75 -3 130.5 30t93.5 86t60.5 119t30.5 129l2 20q6 55 3 117t-22.5 114.5t-61 88t-111.5 37.5q-75 2 -131 -31t-94 -86.5t-60.5 -119.5t-30.5 -129l-2 -21q-4 -37 -4.5 -77zM377 1310q5 45 22 88.5t45.5 78t68.5 55t90 20.5q37 0 69.5 -15 t64 -33t64 -32.5t69.5 -13.5q23 1 41 10t31.5 23.5t23 33t15.5 38.5l116 -29q-4 -45 -20.5 -88.5t-45 -77t-68 -54t-89.5 -20.5q-38 0 -70.5 15t-63.5 33t-63 32.5t-69 13.5q-23 -1 -41 -10t-31 -23.5t-21.5 -33.5t-14.5 -39z" />
<glyph unicode="&#xf6;" d="M97 523l2 21q14 112 58.5 214.5t117 179.5t171 122t219.5 42q115 -3 197.5 -49.5t133 -122.5t70 -173.5t8.5 -202.5l-2 -22q-14 -112 -59 -213.5t-117.5 -178t-171 -120.5t-218.5 -41q-114 3 -196.5 49t-133.5 121t-70.5 172t-8.5 202zM325.5 446q-0.5 -40 5.5 -79 t19 -74t36 -62t56.5 -44t80.5 -18q75 -3 130.5 30t93.5 86t60.5 119t30.5 129l2 20q6 55 3 117t-22.5 114.5t-61 88t-111.5 37.5q-75 2 -131 -31t-94 -86.5t-60.5 -119.5t-30.5 -129l-2 -21q-4 -37 -4.5 -77zM388 1390q1 52 36.5 86t87.5 36q25 0 47.5 -8t39 -23.5t26 -37 t9.5 -47.5t-10 -48t-27 -38t-39.5 -25t-47.5 -10q-25 0 -47.5 8t-39 23t-26 36.5t-9.5 47.5zM829 1389q1 52 36.5 85.5t86.5 35.5q25 0 47.5 -8t39 -23t26 -36.5t9.5 -47.5q-1 -52 -36.5 -86t-87.5 -36q-25 0 -47.5 8t-39 23.5t-25.5 37t-9 47.5z" />
<glyph unicode="&#xf7;" d="M104 583l37 211h982l-37 -211h-982zM410 275q0 28 10 52t27.5 41.5t41.5 27.5t52 11q27 1 51 -8t41.5 -25.5t27.5 -39.5t10 -51t-10 -52t-27.5 -41t-41.5 -27t-52 -10q-27 -1 -51 7.5t-41.5 25t-27.5 39t-10 50.5zM553 1090q0 28 10 52t27.5 41t41.5 27t52 11q27 1 51 -8 t41.5 -25t27.5 -39t10 -51t-10 -51.5t-27.5 -41t-41.5 -27t-52 -10.5q-27 -1 -51 7.5t-41.5 25t-27.5 39t-10 50.5z" />
<glyph unicode="&#xf8;" d="M79 -138l147 226q-39 39 -66.5 87.5t-43.5 104.5t-21 117.5t2 125.5l2 21q14 112 58.5 214.5t117 179.5t171 122t219.5 42q55 -2 102.5 -14t87.5 -32l102 156h152l-152 -234q36 -39 61 -87t39.5 -102.5t18.5 -114t-2 -120.5l-2 -22q-14 -112 -59 -213.5t-117.5 -178 t-171 -120.5t-218.5 -41q-98 3 -175 37l-100 -154h-152zM326.5 401q3.5 -64 26.5 -117l390 599q-19 12 -42.5 19t-52.5 8q-75 2 -131 -31t-94 -86.5t-60.5 -119.5t-30.5 -129l-2 -21q-7 -58 -3.5 -122zM442 187q35 -17 81 -18q75 -3 130.5 30t93.5 86t60.5 119t30.5 129 l2 20q5 53 3 111t-19 110z" />
<glyph unicode="&#xf9;" d="M134.5 276q-8.5 82 0.5 166l106 640h234l-107 -643q-5 -45 -6 -91.5t11 -84t42 -62t87 -25.5q85 -3 149.5 32.5t111.5 104.5l134 769h234l-187 -1082h-210l20 148q-30 -38 -65.5 -69.5t-75.5 -54t-85 -34.5t-95 -11q-98 2 -160.5 43t-96 106.5t-42 147.5zM417 1483h252 l129 -273h-172z" />
<glyph unicode="&#xfa;" d="M134.5 276q-8.5 82 0.5 166l106 640h234l-107 -643q-5 -45 -6 -91.5t11 -84t42 -62t87 -25.5q85 -3 149.5 32.5t111.5 104.5l134 769h234l-187 -1082h-210l20 148q-30 -38 -65.5 -69.5t-75.5 -54t-85 -34.5t-95 -11q-98 2 -160.5 43t-96 106.5t-42 147.5zM599 1207 l222 273h282l-312 -273h-192z" />
<glyph unicode="&#xfb;" d="M134.5 276q-8.5 82 0.5 166l106 640h234l-107 -643q-5 -45 -6 -91.5t11 -84t42 -62t87 -25.5q85 -3 149.5 32.5t111.5 104.5l134 769h234l-187 -1082h-210l20 148q-30 -38 -65.5 -69.5t-75.5 -54t-85 -34.5t-95 -11q-98 2 -160.5 43t-96 106.5t-42 147.5zM387 1254l3 30 l293 239h134l235 -241l-3 -29l-182 1l-120 136l-169 -135z" />
<glyph unicode="&#xfc;" d="M134.5 276q-8.5 82 0.5 166l106 640h234l-107 -643q-5 -45 -6 -91.5t11 -84t42 -62t87 -25.5q85 -3 149.5 32.5t111.5 104.5l134 769h234l-187 -1082h-210l20 148q-30 -38 -65.5 -69.5t-75.5 -54t-85 -34.5t-95 -11q-98 2 -160.5 43t-96 106.5t-42 147.5zM386 1369 q1 52 36.5 86t87.5 36q25 0 47.5 -8t39 -23.5t26 -37t9.5 -47.5t-10 -48t-27 -38t-39.5 -25t-47.5 -10q-25 0 -47.5 8t-39 23t-26 36.5t-9.5 47.5zM827 1368q1 52 36.5 85.5t86.5 35.5q25 0 47.5 -8t39 -23t26 -36.5t9.5 -47.5q-1 -52 -36.5 -86t-87.5 -36q-25 0 -47.5 8 t-39 23.5t-25.5 37t-9 47.5z" />
<glyph unicode="&#xfd;" d="M-16 -419l52 185q22 -2 44 -4.5t43 -1.5q33 1 60.5 16.5t50 38.5t41.5 50.5t36 51.5l99 146l-265 1019h248l143 -661l15 -115l429 776h268l-746 -1246q-32 -55 -71 -105t-86.5 -88t-105 -60t-125.5 -22q-33 1 -65.5 6.5t-64.5 13.5zM619 1207l222 273h282l-312 -273h-192 z" />
<glyph unicode="&#xfe;" d="M-25 -416l341 1967h233l-108 -570q60 60 131.5 91.5t157.5 29.5q74 -2 129 -26t93.5 -64.5t62.5 -94t36.5 -113.5t13.5 -123.5t-5 -123.5l-2 -21q-8 -66 -26 -133.5t-47 -130t-68.5 -117t-91 -94t-115 -62t-140.5 -20.5q-78 2 -146.5 30.5t-119.5 88.5l-96 -514h-233z M331 298q25 -63 72.5 -94.5t115.5 -33.5q75 -2 129 31.5t90.5 87t57 119.5t28.5 129l3 21q4 35 4.5 73.5t-4 77t-16 73.5t-32.5 62t-53 43.5t-77 18.5q-75 2 -132 -33t-101 -92z" />
<glyph unicode="&#xff;" d="M-16 -419l52 185q22 -2 44 -4.5t43 -1.5q33 1 60.5 16.5t50 38.5t41.5 50.5t36 51.5l99 146l-265 1019h248l143 -661l15 -115l429 776h268l-746 -1246q-32 -55 -71 -105t-86.5 -88t-105 -60t-125.5 -22q-33 1 -65.5 6.5t-64.5 13.5zM406 1369q1 52 36.5 86t87.5 36 q25 0 47.5 -8t39 -23.5t26 -37t9.5 -47.5t-10 -48t-27 -38t-39.5 -25t-47.5 -10q-25 0 -47.5 8t-39 23t-26 36.5t-9.5 47.5zM847 1368q1 52 36.5 85.5t86.5 35.5q25 0 47.5 -8t39 -23t26 -36.5t9.5 -47.5q-1 -52 -36.5 -86t-87.5 -36q-25 0 -47.5 8t-39 23.5t-25.5 37 t-9 47.5z" />
<glyph unicode="&#x152;" d="M52 372q-2 62 6 124l74 464q15 102 50.5 196t95 166t145 114.5t199.5 41.5q66 0 130 -8.5t130 -13.5h411l-33 -189h-356l-72 -418h307l-34 -189h-306l-81 -464h368l-35 -196h-396q-66 -5 -131 -13t-132 -7q-72 2 -127 23.5t-94.5 58t-65 86t-38.5 106t-15 118.5z M265.5 359.5q0.5 -34.5 7 -66.5t22.5 -57t43 -41t69 -18q22 -1 44 -0.5t45 0.5l199 1109q-22 2 -43.5 3.5t-44.5 1.5q-71 1 -117.5 -27.5t-75.5 -75.5t-44.5 -106t-23.5 -119l-71 -468q-4 -31 -7 -66t-2.5 -69.5z" />
<glyph unicode="&#x153;" d="M16.5 282q-7.5 81 1.5 158l29 199q12 85 40.5 169t77 150.5t120.5 106.5t171 38q65 -2 122.5 -25.5t96.5 -76.5q48 46 104 74t124 27q86 -2 141 -42t85 -102t37.5 -137t-0.5 -147l-32 -202h-414l-8 -48q-3 -22 -5.5 -49t-2 -54.5t6 -53.5t18 -46.5t33 -33.5t52.5 -14 q46 -1 86.5 13.5t79.5 37.5l43 -158q-48 -46 -109.5 -66t-127.5 -20q-69 1 -132 25t-107 79q-53 -50 -114 -78t-135 -26q-93 2 -152 45t-90.5 109.5t-39 147.5zM237 337.5q-1 -29.5 2 -59.5t12.5 -54t27 -39.5t46.5 -16.5q48 -2 77 27.5t46.5 72.5t25 90.5t11.5 80.5l25 203 q2 18 4.5 44.5t3.5 56t-2 59.5t-12.5 53.5t-27.5 39t-47 16.5q-32 1 -55 -12t-40 -36t-28 -52t-18 -59t-11 -59t-7 -51l-24 -204q-2 -18 -5 -44.5t-4 -56zM735 649h205l12 86q2 22 3 52t-5.5 57t-23 46t-48.5 21q-28 1 -49 -12.5t-35.5 -36.5t-24.5 -52t-16.5 -58.5 t-10.5 -56.5t-7 -46z" />
<glyph unicode="&#x178;" d="M197 1456h251l172 -694l415 694h271l-610 -945l-90 -511h-228l93 541zM445 1712q1 52 36.5 86t87.5 36q25 0 47.5 -8t39 -23.5t26 -37t9.5 -47.5t-10 -48t-27 -38t-39.5 -25t-47.5 -10q-25 0 -47.5 8t-39 23t-26 36.5t-9.5 47.5zM886 1711q1 52 36.5 85.5t86.5 35.5 q25 0 47.5 -8t39 -23t26 -36.5t9.5 -47.5q-1 -52 -36.5 -86t-87.5 -36q-25 0 -47.5 8t-39 23.5t-25.5 37t-9 47.5z" />
<glyph unicode="&#x2c6;" d="M260 1248l3 30l293 239h134l235 -241l-3 -29l-182 1l-120 136l-169 -135z" />
<glyph unicode="&#x2dc;" d="M235 1280q5 45 22 88.5t45.5 78t68.5 55t90 20.5q37 0 69.5 -15t64 -33t64 -32.5t69.5 -13.5q23 1 41 10t31.5 23.5t23 33t15.5 38.5l116 -29q-4 -45 -20.5 -88.5t-45 -77t-68 -54t-89.5 -20.5q-38 0 -70.5 15t-63.5 33t-63 32.5t-69 13.5q-23 -1 -41 -10t-31 -23.5 t-21.5 -33.5t-14.5 -39z" />
<glyph unicode="&#x2000;" horiz-adv-x="966" />
<glyph unicode="&#x2001;" horiz-adv-x="1933" />
<glyph unicode="&#x2002;" horiz-adv-x="966" />
<glyph unicode="&#x2003;" horiz-adv-x="1933" />
<glyph unicode="&#x2004;" horiz-adv-x="644" />
<glyph unicode="&#x2005;" horiz-adv-x="483" />
<glyph unicode="&#x2006;" horiz-adv-x="322" />
<glyph unicode="&#x2007;" horiz-adv-x="322" />
<glyph unicode="&#x2008;" horiz-adv-x="241" />
<glyph unicode="&#x2009;" horiz-adv-x="386" />
<glyph unicode="&#x200a;" horiz-adv-x="107" />
<glyph unicode="&#x2010;" d="M231 542l34 193h778l-34 -193h-778z" />
<glyph unicode="&#x2011;" d="M231 542l34 193h778l-34 -193h-778z" />
<glyph unicode="&#x2012;" d="M231 542l34 193h778l-34 -193h-778z" />
<glyph unicode="&#x2013;" d="M68 623l46 193h1069l-45 -193h-1070z" />
<glyph unicode="&#x2014;" d="M68 623l46 193h1069l-45 -193h-1070z" />
<glyph unicode="&#x2018;" d="M546 1020l26 162q18 116 79.5 217t151.5 175l115 -81q-51 -71 -87.5 -146t-52.5 -162l-28 -165h-204z" />
<glyph unicode="&#x2019;" d="M532 1088q52 72 88.5 146.5t51.5 162.5l29 163h203l-26 -161q-19 -117 -81.5 -217.5t-153.5 -173.5z" />
<glyph unicode="&#x201a;" d="M292 -240q51 71 87 146t51 162l31 179h212l-30 -176q-19 -115 -80 -216t-150 -175z" />
<glyph unicode="&#x201c;" d="M387 1020l26 162q18 116 79.5 217t151.5 175l115 -81q-51 -71 -87.5 -146t-52.5 -162l-28 -165h-204zM712 1020l26 162q18 116 79.5 217t151.5 175l115 -81q-51 -71 -87.5 -146t-52.5 -162l-28 -165h-204z" />
<glyph unicode="&#x201d;" d="M370 1088q52 72 88.5 146.5t51.5 162.5l29 163h203l-26 -161q-19 -117 -81.5 -217.5t-153.5 -173.5zM708 1088q52 72 88.5 146.5t51.5 162.5l29 163h203l-26 -161q-19 -117 -81.5 -217.5t-153.5 -173.5z" />
<glyph unicode="&#x201e;" d="M153 -242q51 71 87 146t51 162l29 163h211l-27 -160q-18 -115 -78 -216t-150 -175zM455 -242q51 72 88 146.5t53 161.5l28 163h211l-26 -160q-9 -57 -29.5 -111.5t-50.5 -104.5t-68.5 -94t-82.5 -81z" />
<glyph unicode="&#x2022;" d="M418 732l3 58q3 48 21.5 88t48.5 68.5t71 44.5t90 15q47 -1 85 -17.5t64 -45.5t39 -68.5t12 -85.5l-3 -58q-4 -48 -22.5 -87.5t-48.5 -67.5t-71 -43.5t-89 -14.5q-47 1 -84.5 17t-63.5 44.5t-39.5 67.5t-12.5 85z" />
<glyph unicode="&#x2026;" d="M100 137q0 37 13 69t36 55.5t54.5 37t69.5 13.5q36 0 66.5 -11.5t52 -33.5t34 -52t12.5 -66q0 -38 -13.5 -69t-36.5 -53.5t-55 -35t-69 -12.5q-35 0 -65 11t-52 31.5t-34.5 50t-12.5 65.5zM483 137q0 37 13 69t36 55.5t54.5 37t69.5 13.5q36 0 66.5 -11.5t52 -33.5 t34 -52t12.5 -66q0 -38 -13.5 -69t-36.5 -53.5t-55 -35t-69 -12.5q-35 0 -65 11t-52 31.5t-34.5 50t-12.5 65.5zM859 137q0 37 13 69t36 55.5t54.5 37t69.5 13.5q36 0 66.5 -11.5t52 -33.5t34 -52t12.5 -66q0 -38 -13.5 -69t-36.5 -53.5t-55 -35t-69 -12.5q-35 0 -65 11 t-52 31.5t-34.5 50t-12.5 65.5z" />
<glyph unicode="&#x202f;" horiz-adv-x="386" />
<glyph unicode="&#x2039;" d="M368 528l2 19l341 391h176l-319 -411l167 -388h-148z" />
<glyph unicode="&#x203a;" d="M289 139l319 410l-167 389h148l220 -388l-2 -20l-341 -391h-177z" />
<glyph unicode="&#x205f;" horiz-adv-x="483" />
<glyph unicode="&#x20ac;" d="M108 530l25 138h167l23 129h-168l24 138h161q29 120 82.5 220t132.5 172t182.5 111.5t233.5 38.5q60 -1 119 -10t118 -23l-47 -195q-48 17 -96.5 26t-99.5 10q-83 1 -147 -25.5t-111.5 -74t-79.5 -112t-52 -138.5h357l-24 -138h-350l-23 -129h351l-24 -138h-347 q-8 -69 -1 -132.5t34.5 -112.5t78 -79t128.5 -32q54 -1 105.5 7.5t102.5 24.5l8 -197q-59 -14 -118.5 -21.5t-120.5 -6.5q-119 2 -210 45t-149 116.5t-81 173t-8 215.5z" />
<glyph unicode="&#x2122;" d="M236 1362l17 94h385l-17 -94h-133l-78 -444h-115l77 444h-136zM614 916l94 540h131l59 -379l195 379h132l-94 -540h-109l64 358l-180 -358l-59 -1l-59 373l-66 -372h-108z" />
<glyph unicode="&#x25fc;" horiz-adv-x="1080" d="M0 0v1080h1080v-1080h-1080z" />
</font>
</defs>
</svg>
