<?xml version="1.0" standalone="no"?>
<!DOCTYPE svg PUBLIC "-//W3C//DTD SVG 1.1//EN" "http://www.w3.org/Graphics/SVG/1.1/DTD/svg11.dtd" >
<svg xmlns="http://www.w3.org/2000/svg">
<metadata></metadata>
<defs>
<font id="roboto_monomedium" horiz-adv-x="1229" >
<font-face units-per-em="2048" ascent="1536" descent="-512" />
<missing-glyph horiz-adv-x="500" />
<glyph horiz-adv-x="0" />
<glyph unicode="&#xd;" />
<glyph horiz-adv-x="0" />
<glyph horiz-adv-x="0" />
<glyph />
<glyph unicode="&#x9;" />
<glyph unicode=" " />
<glyph unicode="!" d="M463 119q0 58 36.5 96.5t104.5 38.5t105 -38.5t37 -96.5q0 -57 -37 -94.5t-105 -37.5t-104.5 37.5t-36.5 94.5zM482 1456h242l-8 -963h-226z" />
<glyph unicode="&#x22;" d="M312 1030v506h183v-107l-25 -399h-158zM703 1030v506h183v-107l-25 -399h-158z" />
<glyph unicode="#" d="M51 410v157h261l59 314h-245v159h275l78 416h165l-78 -416h227l78 416h167l-78 -416h207v-159h-237l-59 -314h220v-157h-249l-77 -410h-166l76 410h-227l-76 -410h-166l77 410h-232zM478 567h227l58 314h-227z" />
<glyph unicode="$" d="M143 442h239q0 -78 22.5 -129t58.5 -81.5t81 -43t91 -12.5q118 0 181 55.5t63 148.5q0 42 -13.5 77t-43.5 64.5t-78 55t-117 48.5q-98 32 -177 71.5t-135 92t-86 122t-30 162.5q0 84 27 153.5t76.5 121t120 83.5t157.5 42v218h160v-220q87 -12 155.5 -48.5t116.5 -95.5 t73.5 -140t25.5 -182h-239q0 63 -15 113.5t-43 86t-68.5 54.5t-92.5 19q-56 0 -96.5 -15t-66.5 -41.5t-39 -64t-13 -82.5q0 -43 12.5 -77t42.5 -63t79 -54.5t122 -50.5q99 -34 177.5 -73.5t133.5 -92t84 -121.5t29 -161q0 -88 -28 -157.5t-80 -120t-126 -81t-165 -39.5v-194 h-159v193q-81 8 -156 37t-133 83.5t-93 138t-35 200.5z" />
<glyph unicode="%" d="M39 1119v77q0 58 17.5 109t52.5 89t87 60.5t121 22.5t121.5 -22.5t87 -60.5t52 -89t17.5 -109v-77q0 -57 -17.5 -107.5t-52 -89t-86.5 -60.5t-120 -22q-69 0 -121.5 22t-87.5 60.5t-53 89t-18 107.5zM207 1119q0 -27 6 -51.5t19.5 -43t34.5 -30t52 -11.5q30 0 51 11.5 t33.5 30t18.5 43t6 51.5v77q0 27 -6 51.5t-19 43t-34 30t-52 11.5q-30 0 -51 -11.5t-34 -30t-19 -43t-6 -51.5v-77zM284 260l561 1028l127 -64l-561 -1028zM631 259v78q0 57 17.5 108t52.5 89.5t87 60.5t121 22t121.5 -22t87 -60.5t52 -89.5t17.5 -108v-78q0 -57 -17.5 -108 t-52 -89t-86 -60t-120.5 -22t-121.5 22t-88 60t-53 89t-17.5 108zM799 259q0 -27 6 -51.5t19.5 -43t35 -30t51.5 -11.5q32 0 53 11t33 30t17 43.5t5 51.5v78q0 26 -6 50.5t-19 43t-34 30t-51 11.5q-31 0 -52 -11.5t-34 -30t-18.5 -43t-5.5 -50.5v-78z" />
<glyph unicode="&#x26;" d="M88 373q0 67 19 122.5t53.5 103.5t83.5 91t109 85q-63 90 -98.5 170t-35.5 166q0 87 26.5 155t76 115t119.5 71.5t156 24.5q74 0 134.5 -26.5t103 -71t65.5 -103.5t23 -124q0 -52 -16 -96.5t-44 -83.5t-66 -73.5t-82 -66.5l-85 -71l271 -352q32 60 50.5 131t18.5 152h209 q0 -134 -36.5 -247.5t-111.5 -204.5l185 -240h-279l-70 92q-75 -55 -159.5 -84t-184.5 -29q-101 0 -181.5 29.5t-137 82t-86.5 124.5t-30 158zM327 381q0 -44 13.5 -82.5t39 -67t63 -45t86.5 -16.5q60 0 117 19t108 54l-288 381l-16 -13q-41 -35 -65.5 -68.5t-37 -63.5 t-16.5 -55t-4 -43zM445 1112q0 -49 21 -100t59 -108l103 80q31 21 48.5 42.5t25.5 42.5t10 40.5t2 34.5q0 26 -8 51.5t-23 45t-37 31.5t-49 12q-38 0 -66.5 -14t-47.5 -37.5t-28.5 -54.5t-9.5 -66z" />
<glyph unicode="'" d="M473 1022v514h192v-124l-25 -390h-167z" />
<glyph unicode="(" d="M348 576v16q0 145 23 271t61 233t88.5 194.5t106 155t112 114t107.5 72.5l48 -141q-57 -44 -115 -119t-105 -185t-76.5 -257.5t-29.5 -335.5v-20q0 -188 29.5 -335.5t76.5 -258.5t105 -187t115 -122l-48 -134q-51 25 -107.5 72t-112 114.5t-106 154.5t-88.5 194t-61 233 t-23 271z" />
<glyph unicode=")" d="M316 -329q56 43 114 119t105 187.5t77 260t30 336.5v20q0 188 -31.5 336.5t-79.5 260.5t-105.5 188t-109.5 119l47 134q51 -26 108.5 -73t114 -115t107.5 -156.5t90 -195.5t62 -232.5t23 -267.5v-16q0 -143 -23 -268.5t-62 -232t-90 -194.5t-107.5 -156t-114 -115.5 t-108.5 -72.5z" />
<glyph unicode="*" d="M154 740l62 196l369 -160l-32 427h205l-35 -433l366 156l62 -199l-390 -90l261 -324l-167 -123l-210 369l-208 -358l-169 117l270 327z" />
<glyph unicode="+" d="M109 575v225h383v406h233v-406h382v-225h-382v-429h-233v429h-383z" />
<glyph unicode="," d="M354 -304q43 72 66 151.5t23 177.5v209h239l-1 -201q0 -53 -13.5 -109t-39 -110t-61 -102.5t-78.5 -86.5z" />
<glyph unicode="-" d="M249 542v193h801v-193h-801z" />
<glyph unicode="." d="M454 143q0 35 11.5 66t33.5 53.5t54.5 35.5t74.5 13t74.5 -13t55 -35.5t34 -53.5t11.5 -66t-11.5 -64.5t-34 -51.5t-55 -34.5t-74.5 -12.5t-74.5 12.5t-54.5 34.5t-33.5 51.5t-11.5 64.5z" />
<glyph unicode="/" d="M233 -125l576 1581h218l-576 -1581h-218z" />
<glyph unicode="0" d="M142 554v348q0 141 33 248.5t94.5 180t149 109.5t196.5 37q110 0 198 -37t149.5 -109.5t94.5 -180t33 -248.5v-348q0 -141 -32.5 -248.5t-93.5 -180t-149 -109.5t-198 -37q-109 0 -197 37t-149.5 109.5t-95 180t-33.5 248.5zM382 645l466 347q-8 149 -65.5 220.5 t-167.5 71.5q-117 0 -175 -83t-58 -255v-301zM384 457q18 -286 233 -286q233 0 233 341v292z" />
<glyph unicode="1" d="M189 1025v210l598 221h15v-1456h-241v1161z" />
<glyph unicode="2" d="M76 1013q0 95 34.5 179.5t99 147.5t156.5 99.5t207 36.5q108 0 192 -31t142 -86.5t88 -131.5t30 -167q0 -68 -22 -131.5t-61 -126.5t-93 -126.5t-117 -130.5l-330 -354h681v-191h-978v165l474 517q60 67 100.5 118.5t64.5 94.5t34 80t10 75q0 50 -15.5 92.5t-44 73 t-69 47.5t-90.5 17q-130 0 -191.5 -71t-61.5 -196h-240z" />
<glyph unicode="3" d="M95 389h239q0 -48 17 -88.5t48.5 -69t75.5 -44.5t99 -16q114 0 179.5 60.5t65.5 175.5q0 63 -19 108.5t-54.5 75t-85.5 43.5t-113 14h-143v188h143q63 0 110 16.5t78 46.5t46.5 71.5t15.5 91.5q0 106 -55.5 163.5t-167.5 57.5q-49 0 -90.5 -14.5t-72 -41.5t-47.5 -65 t-17 -86h-239q0 86 34.5 159t96 126.5t146.5 84t186 30.5q103 0 189 -26.5t147 -78.5t95 -129.5t34 -179.5q0 -43 -13 -88t-39.5 -87t-67 -78.5t-95.5 -61.5q66 -23 111 -59t73 -80.5t40 -95.5t12 -104q0 -102 -37 -182t-102.5 -134.5t-154.5 -83t-192 -28.5q-95 0 -181 26 t-151.5 77.5t-104.5 128t-39 177.5z" />
<glyph unicode="4" d="M66 469l630 987h247v-939h183v-193h-183v-324h-239v324h-632zM312 517h392v620l-26 -47z" />
<glyph unicode="5" d="M150 392h231q14 -108 79 -164.5t167 -56.5q59 0 103 22t73 61.5t43.5 95t14.5 121.5q0 63 -16.5 116t-49.5 91.5t-82 60.5t-113 22q-43 0 -74 -6.5t-55.5 -18t-44.5 -27.5t-40 -34l-191 47l79 734h779v-214h-581l-37 -345q35 20 93 39t134 19q103 0 184.5 -34 t137.5 -97.5t86 -154t30 -204.5q0 -101 -28.5 -189.5t-87 -154t-147.5 -103.5t-210 -38q-91 0 -174.5 26.5t-148.5 78t-106.5 128.5t-47.5 179z" />
<glyph unicode="6" d="M122 550v93q0 107 16 209.5t51.5 193.5t92 167.5t136 131.5t184.5 86t238 31h27v-204h-16q-123 0 -211.5 -34.5t-147 -93.5t-89 -137.5t-38.5 -167.5q24 27 55 51.5t69 44t82 31t94 11.5q107 0 185.5 -41t129.5 -108.5t76 -155t25 -181.5q0 -105 -31.5 -195.5 t-91.5 -157.5t-148 -105.5t-200 -38.5q-119 0 -210 47t-152.5 125.5t-93.5 181.5t-32 216zM362 530q0 -89 19.5 -155.5t53.5 -111.5t78 -67.5t94 -22.5q56 0 100 22t74.5 61.5t46.5 94t16 119.5q0 61 -15 115.5t-45 95.5t-74 65t-102 24q-41 0 -79 -12.5t-70 -35t-57 -54.5 t-40 -70v-68z" />
<glyph unicode="7" d="M89 1257v199h1007v-133l-583 -1323h-252l583 1257h-755z" />
<glyph unicode="8" d="M143 396q0 60 16.5 114t47 99t74 81t97.5 60q-94 48 -148 131.5t-54 190.5q0 97 33 172.5t91.5 127t139.5 78t177 26.5t177.5 -26.5t141.5 -78t93.5 -127t33.5 -172.5q0 -107 -55 -190.5t-150 -131.5q54 -25 97.5 -61t74.5 -81t47.5 -98.5t16.5 -113.5q0 -101 -37 -179 t-101 -130.5t-150.5 -79.5t-185.5 -27q-101 0 -188.5 27t-151.5 79.5t-100.5 130.5t-36.5 179zM383 408q0 -112 63 -174.5t174 -62.5q52 0 95.5 16t74.5 47t48 74.5t17 99.5q0 55 -17 100t-48 77t-74.5 49.5t-97.5 17.5t-97.5 -17.5t-74 -49.5t-47 -77t-16.5 -100zM415 1064 q0 -50 14.5 -90.5t41 -69t64.5 -44.5t85 -16q46 0 84 16t64.5 44.5t41 69t14.5 90.5q0 48 -15 88.5t-42 69.5t-65.5 45t-84.5 16q-47 0 -84.5 -15t-63.5 -43.5t-40 -69t-14 -91.5z" />
<glyph unicode="9" d="M122 968q0 105 31 197.5t91 161.5t147.5 109t199.5 40q121 0 210.5 -48t149 -129t89 -188.5t29.5 -226.5v-78q0 -104 -13.5 -204.5t-46 -191t-86 -166.5t-133 -131.5t-188 -87t-250.5 -31.5h-19v204h18q130 0 218.5 30.5t143.5 84.5t81.5 127.5t33.5 159.5 q-22 -25 -50.5 -46.5t-64 -38t-78 -26t-93.5 -9.5q-107 0 -186 40.5t-131 108t-77.5 155.5t-25.5 184zM359 975q0 -60 14 -115t42.5 -97.5t72.5 -68t103 -25.5q41 0 78.5 13t68.5 36t55 55t38 70v79q0 88 -19.5 155.5t-52.5 113t-76.5 68.5t-91.5 23q-56 0 -99 -24 t-72.5 -65.5t-45 -97.5t-15.5 -120z" />
<glyph unicode=":" d="M485 143q0 35 11.5 66t33.5 53.5t54.5 35.5t74.5 13t74.5 -13t55 -35.5t34 -53.5t11.5 -66t-11.5 -64.5t-34 -51.5t-55 -34.5t-74.5 -12.5t-74.5 12.5t-54.5 34.5t-33.5 51.5t-11.5 64.5zM485 994q0 35 11.5 66t33.5 53.5t54.5 35.5t74.5 13t74.5 -13t55 -35.5t34 -53.5 t11.5 -66t-11.5 -64.5t-34 -51.5t-55 -34.5t-74.5 -12.5t-74.5 12.5t-54.5 34.5t-33.5 51.5t-11.5 64.5z" />
<glyph unicode=";" d="M457 -304q43 72 66 151.5t23 177.5v209h239l-1 -201q0 -53 -13.5 -109t-39 -110t-61 -102.5t-78.5 -86.5zM500 994q0 35 11.5 66t33.5 53.5t54.5 35.5t74.5 13t74.5 -13t55 -35.5t34 -53.5t11.5 -66t-11.5 -64.5t-34 -51.5t-55 -34.5t-74.5 -12.5t-74.5 12.5t-54.5 34.5 t-33.5 51.5t-11.5 64.5z" />
<glyph unicode="&#x3c;" d="M163 540v190l866 372v-239l-568 -207l-65 -23l65 -22l568 -204v-240z" />
<glyph unicode="=" d="M165 322v199h920v-199h-920zM165 746v199h920v-199h-920z" />
<glyph unicode="&#x3e;" d="M169 167v237l600 213l65 20l-65 21l-600 209v236l893 -372v-191z" />
<glyph unicode="?" d="M172 1095q1 93 36.5 164.5t96.5 120t143 73t178 24.5q108 0 192 -25.5t142.5 -74.5t89 -121t30.5 -165q0 -71 -24.5 -132.5t-64 -115.5t-88.5 -101t-97 -90q-30 -30 -46 -54t-23.5 -49t-8.5 -54t-1 -69h-225q0 71 4 119t18 85t42 69.5t77 74.5q33 33 68 68.5t63.5 74 t47 79.5t18.5 85q0 99 -55 147.5t-159 48.5q-40 0 -78.5 -10.5t-68.5 -32.5t-48.5 -56.5t-18.5 -82.5h-240zM471 120q0 59 36.5 97.5t104.5 38.5t105.5 -38.5t37.5 -97.5q0 -57 -37.5 -94.5t-105.5 -37.5t-104.5 37.5t-36.5 94.5z" />
<glyph unicode="@" d="M56 686q5 157 51 296t125.5 243t188.5 164.5t240 60.5q118 0 213.5 -45.5t161 -129.5t99 -203t29.5 -265q-3 -88 -20 -176t-51.5 -158t-88 -114t-128.5 -44q-55 0 -96 27.5t-62 78.5q-35 -49 -81.5 -77t-100.5 -28q-53 0 -93.5 25.5t-66 73.5t-35.5 115.5t-3 151.5 q10 108 39 194t74 146t105 92.5t132 32.5q73 0 120 -25t75 -58l-43 -515q-3 -35 1.5 -55.5t13 -31t20 -13t22.5 -2.5q30 0 54.5 27t42 74.5t27 113t9.5 142.5q4 124 -19.5 218t-72.5 157.5t-120.5 95.5t-162.5 32q-101 0 -182.5 -46.5t-139.5 -129.5t-91 -196.5t-37 -248.5 q-11 -272 94 -411t308 -139q62 0 124.5 16.5t107.5 43.5l32 -129q-26 -19 -58.5 -33t-67.5 -23.5t-71.5 -14t-69.5 -4.5q-144 0 -249.5 49.5t-173 140t-99 218.5t-26.5 286zM490 682q-5 -110 18.5 -163.5t68.5 -53.5q33 0 65 16t59 63v5l39 451q-20 6 -41 6 q-94 0 -143.5 -84t-65.5 -240z" />
<glyph unicode="A" d="M52 0l473 1456h211l464 -1456h-247l-98 338h-455l-100 -338h-248zM461 543h334l-165 571z" />
<glyph unicode="B" d="M148 0v1456h465q105 -1 196.5 -24t160.5 -71q68 -49 107 -123q38 -73 38 -171v-5q-1 -108 -60 -184.5t-159 -118.5q61 -17 108.5 -48.5t79.5 -75.5t49 -97.5t17 -113.5q0 -104 -38 -183t-105.5 -132t-160 -80.5t-199.5 -28.5h-499zM389 196h262q57 1 104 17.5t81 45.5 t53.5 71t19.5 94q0 55 -17 98.5t-49 73.5t-78 46.5t-103 17.5h-273v-464zM389 843h230q54 1 100.5 14.5t80.5 40t54 65t20 88.5q0 55 -19 94t-53.5 64t-81.5 36.5t-103 12.5h-228v-415z" />
<glyph unicode="C" d="M91 628v199q1 133 35 251.5t100.5 207t165.5 140t230 51.5q115 0 205 -34t154 -96t102 -151t49 -198h-240q-6 64 -24.5 116.5t-50.5 90t-80.5 57.5t-114.5 20q-81 0 -136 -37t-89 -99.5t-48.5 -144.5t-14.5 -172v-201q0 -94 14.5 -176.5t47.5 -144.5t88 -98t137 -36 q126 0 192 71.5t78 202.5h241q-10 -105 -50 -191.5t-106 -148t-155.5 -95t-199.5 -33.5q-133 0 -232 51.5t-165 139.5t-99 206t-34 252z" />
<glyph unicode="D" d="M137 0v1456h356q150 -1 269.5 -50t203 -138t128.5 -212.5t46 -273.5v-110q-1 -150 -46 -273.5t-128 -212t-201 -137.5t-265 -49h-363zM381 193h119q99 1 173 35.5t123.5 97t74 150.5t25.5 196v112q-1 105 -25.5 192t-74.5 150.5t-125.5 99t-177.5 36.5h-112v-1069z" />
<glyph unicode="E" d="M162 0v1456h935v-198h-694v-411h599v-194h-599v-457h701v-196h-942z" />
<glyph unicode="F" d="M168 0v1456h943v-198h-701v-441h611v-197h-611v-620h-242z" />
<glyph unicode="G" d="M92 637v180q0 138 36 258t103.5 209t165.5 140.5t224 51.5q113 0 202 -31t153 -89.5t101.5 -142.5t47.5 -188h-236q-9 59 -28 106t-51 80t-77.5 50.5t-107.5 17.5q-76 0 -130.5 -37.5t-90.5 -101t-53 -147t-18 -174.5v-182q1 -91 18.5 -174t55 -146.5t96.5 -101.5 t142 -39q34 0 70 4.5t68.5 14.5t59.5 25.5t44 38.5l2 291h-263v187h498l2 -555q-37 -44 -87 -81t-112 -64t-134.5 -42t-154.5 -15q-131 0 -232 51t-170.5 139.5t-106 208.5t-37.5 258z" />
<glyph unicode="H" d="M130 0v1456h233v-609h495v609h234v-1456h-234v650h-495v-650h-233z" />
<glyph unicode="I" d="M181 0v198h308v1059h-308v199h866v-199h-315v-1059h315v-198h-866z" />
<glyph unicode="J" d="M103 425h242q5 -118 66.5 -183.5t177.5 -65.5q55 0 100 21t76.5 58t48.5 85.5t18 104.5v1011h243l1 -1011q-2 -102 -39.5 -187.5t-103 -147t-153.5 -96t-191 -34.5q-107 0 -194 29.5t-150 86t-100 139.5t-42 190z" />
<glyph unicode="K" d="M147 0v1456h243v-682l133 173l383 509h293l-495 -639l520 -817h-288l-390 633l-156 -175v-458h-243z" />
<glyph unicode="L" d="M172 0v1456h240v-1260h694v-196h-934z" />
<glyph unicode="M" d="M135 0v1456h298l181 -629l200 629h298v-1456h-226v500l14 638l-224 -698h-126l-203 674l14 -614v-500h-226z" />
<glyph unicode="N" d="M131 0v1456h243l472 -999l2 999h243v-1456h-242l-474 1002l-1 -1002h-243z" />
<glyph unicode="O" d="M91 634v186q0 86 14.5 168t43 154.5t71 134t100 105.5t130 69t159.5 25q132 0 230.5 -54t164.5 -144.5t99 -209.5t33 -248v-186q0 -129 -33 -247.5t-98.5 -209t-164 -144t-230.5 -53.5q-131 0 -228 54t-161.5 144.5t-97 208.5t-32.5 247zM332 634q1 -82 14 -162.5 t44.5 -145t85 -104.5t134.5 -40q82 0 136.5 40t87.5 104t46.5 145t14.5 163v188q-1 82 -15 163t-47 144.5t-87.5 103t-136.5 39.5q-81 0 -134.5 -39.5t-85 -103.5t-44 -144.5t-13.5 -162.5v-188z" />
<glyph unicode="P" d="M167 0v1456h487q109 -1 201.5 -32.5t159.5 -90t104.5 -142t37.5 -188.5q0 -102 -37.5 -184t-104.5 -140t-159.5 -89t-201.5 -32h-247v-558h-240zM407 752h247q61 0 109 18.5t82 51.5t52 79t18 100q0 57 -18 105t-52 82.5t-82 53.5t-109 20h-247v-510z" />
<glyph unicode="Q" d="M88 622v186q1 87 15 170.5t43 158t72 136.5t101 107.5t131.5 70.5t162.5 25q134 0 234 -55t166 -147.5t99 -213.5t34 -252v-186q0 -74 -13 -146t-37.5 -139t-62 -125.5t-86.5 -104.5l248 -213l-159 -145l-284 249q-32 -8 -66.5 -13t-72.5 -5q-133 0 -231.5 55.5 t-163.5 146t-97 205.5t-33 235zM330 622q0 -74 12.5 -151.5t44.5 -142t86.5 -105.5t139.5 -41q86 0 142 41t89 105t46.5 142t13.5 152v188q0 85 -13.5 168t-46.5 148t-89.5 105.5t-141.5 40.5t-139.5 -40.5t-86.5 -106t-44.5 -148.5t-12.5 -167v-188z" />
<glyph unicode="R" d="M153 0v1456h460q112 -1 206.5 -28.5t163.5 -82t107 -136.5t38 -192q0 -74 -19.5 -134.5t-54.5 -109.5t-84 -86t-108 -63l308 -612v-12h-256l-277 568h-244v-568h-240zM393 762h221q60 0 110 17t86.5 48.5t56.5 77t20 104.5q0 61 -19 108t-54.5 79t-86.5 48.5t-114 17.5 h-220v-500z" />
<glyph unicode="S" d="M101 437h241q5 -66 29 -115t64 -81.5t93.5 -49t118.5 -16.5q54 0 101 13t82 38.5t55 63t20 85.5q0 52 -21.5 91.5t-61 69.5t-94 52.5t-118.5 41.5q-86 25 -169.5 62t-149 90.5t-106 125t-40.5 165.5t40.5 168.5t108.5 126.5t158 80t188 28q105 0 196.5 -32.5t160 -91 t108.5 -140t41 -180.5h-240q-5 55 -23.5 100.5t-52 78.5t-81.5 51t-111 18q-54 0 -100 -14t-79.5 -41t-52.5 -65t-19 -86q0 -51 26 -88.5t68 -65.5t96.5 -48.5t113.5 -37.5q91 -27 174 -66.5t146 -95t100 -128.5t37 -167q0 -97 -41 -171t-110 -124t-160 -75.5t-190 -25.5 q-67 0 -133 13t-126.5 39t-112.5 64.5t-90.5 89t-60.5 113t-23 137.5z" />
<glyph unicode="T" d="M50 1258v198h1130v-198h-447v-1258h-239v1258h-444z" />
<glyph unicode="U" d="M130 481l2 975h236l2 -975q1 -67 17 -123t46 -96.5t74.5 -63t103.5 -22.5q60 0 106 22.5t77 63t47 96.5t17 123l2 975h236l2 -975q-1 -112 -36 -204.5t-98 -158.5t-152.5 -102t-200.5 -36q-108 0 -196 36t-151 101.5t-98 158t-36 205.5z" />
<glyph unicode="V" d="M49 1456h262l301 -1091l303 1091h262l-450 -1456h-229z" />
<glyph unicode="W" d="M48 1456h224l104 -950l149 950h188l154 -955l104 955h224l-186 -1456h-230l-159 968l-157 -968h-229z" />
<glyph unicode="X" d="M56 0l425 734l-414 722h281l276 -542l280 542h283l-415 -722l425 -734h-281l-288 551l-288 -551h-284z" />
<glyph unicode="Y" d="M45 1456h268l303 -696l303 696h268l-454 -933l-2 -523h-233l-2 529z" />
<glyph unicode="Z" d="M100 162l712 1096h-706v198h989l1 -158l-713 -1102h735v-196h-1017z" />
<glyph unicode="[" d="M410 -323v2000h427v-188h-194v-1625h194v-187h-427z" />
<glyph unicode="\" d="M233 1456h219l577 -1581h-220z" />
<glyph unicode="]" d="M400 -136h195v1625h-195v188h428v-2000h-428v187z" />
<glyph unicode="^" d="M220 683l319 773h169l318 -773h-204l-180 458l-20 84l-20 -84l-177 -458h-205z" />
<glyph unicode="_" d="M150 0h918v-188h-918v188z" />
<glyph unicode="`" d="M409 1478h273l176 -273h-190z" />
<glyph unicode="a" d="M134 303q0 174 129.5 266t371.5 92h175v71q0 86 -58 136.5t-164 50.5q-48 0 -84 -11.5t-60 -31.5t-36 -47t-12 -58h-239q0 63 29.5 122.5t86.5 106t139.5 74.5t188.5 28q96 0 178 -23.5t142 -70t94 -116t34 -162.5v-482q0 -71 10.5 -129.5t30.5 -101.5v-17h-245 q-10 20 -16.5 47t-11.5 58q-25 -26 -56.5 -48.5t-70 -39.5t-83 -27t-95.5 -10q-86 0 -155.5 24.5t-119 68t-76.5 102.5t-27 128zM373 328q0 -33 11 -61.5t33.5 -49t57 -32.5t82.5 -12q46 0 86.5 11.5t73 30t56 42.5t37.5 49v203h-152q-146 0 -215.5 -47t-69.5 -134z" />
<glyph unicode="b" d="M158 0v1536h239v-557q51 59 120 91t163 32q104 0 183.5 -40.5t133.5 -113.5t81.5 -174.5t27.5 -223.5v-21q0 -120 -27.5 -220.5t-81.5 -173.5t-133 -114t-182 -41q-99 0 -171.5 35t-124.5 101l-11 -116h-217zM397 318q29 -63 83.5 -103t140.5 -40q68 0 115 27.5t76 75.5 t42 112.5t13 138.5v21q0 72 -12.5 136.5t-41 113.5t-76.5 77.5t-118 28.5q-85 0 -139 -39t-83 -102v-447z" />
<glyph unicode="c" d="M128 522v36q0 111 31.5 210t94.5 173t157 117.5t218 43.5q98 0 181.5 -30t143.5 -84t94 -129q33 -73 33 -159v-5h-226v5q1 41 -15 78q-16 39 -47.5 68t-73.5 46t-92 17q-75 0 -125 -30.5t-80 -80t-42.5 -112.5t-12.5 -128v-36q0 -66 12.5 -129t42.5 -112.5t80 -80 t126 -30.5q44 0 85.5 14t73.5 39t50.5 59t17.5 74h226q1 -78 -35.5 -146.5t-99 -119.5t-144.5 -81t-172 -30q-125 0 -219 43t-157 117.5t-94.5 173t-31.5 209.5z" />
<glyph unicode="d" d="M123 528v21q0 123 30 225t86 175t135.5 113t178.5 40q89 0 157 -30.5t119 -87.5v552h240v-1536h-217l-12 110q-51 -63 -122.5 -96.5t-166.5 -33.5q-98 0 -177 41.5t-134.5 114.5t-86 173.5t-30.5 218.5zM362 528q0 -73 14 -137t44.5 -112t78 -75.5t113.5 -27.5 q82 0 134 35.5t83 95.5v470q-31 59 -83.5 94t-131.5 35q-67 0 -114.5 -28t-78 -77t-45 -114t-14.5 -138v-21z" />
<glyph unicode="e" d="M122 502v41q0 129 41.5 232t111 176t162 112t194.5 39q118 0 208 -39.5t150.5 -111t91.5 -169.5t31 -215v-101h-750q6 -63 31 -117t65.5 -93.5t95 -62t119.5 -22.5q91 0 167.5 36t124.5 99l130 -122q-26 -39 -67 -75.5t-96 -65t-123.5 -46t-149.5 -17.5q-120 0 -219 40 t-169.5 110t-109.5 165.5t-39 206.5zM369 642h507v18q-3 48 -18.5 92.5t-45.5 79.5t-75.5 56t-106.5 21q-50 0 -93 -18t-77 -52.5t-57.5 -84t-33.5 -112.5z" />
<glyph unicode="f" d="M136 904v178h291v67q0 105 31.5 185.5t91 135t143.5 83t189 28.5q69 0 131.5 -10.5t130.5 -24.5l-21 -190q-39 11 -91 19.5t-117 8.5q-129 0 -188.5 -61t-59.5 -174v-67h402v-178h-402v-904h-240v904h-291z" />
<glyph unicode="g" d="M124 528v21q0 123 30.5 225t87.5 175t137.5 113t180.5 40q97 0 168 -33t122 -95l10 108h217v-1053q0 -109 -36 -193.5t-100.5 -142.5t-154.5 -88.5t-198 -30.5q-44 0 -99.5 9.5t-111.5 31t-107 56t-87 83.5l114 143q61 -72 131.5 -103t145.5 -31q60 0 109 17t83 50 t52.5 81.5t18.5 111.5v73q-51 -56 -119.5 -86t-159.5 -30q-99 0 -179 41.5t-137 114.5t-87.5 173.5t-30.5 218.5zM364 528q0 -73 15 -137t46 -112t79.5 -75.5t114.5 -27.5q83 0 135 34.5t83 92.5v478q-32 57 -84 91t-132 34q-66 0 -114.5 -28t-80 -77t-47 -114t-15.5 -138 v-21z" />
<glyph unicode="h" d="M155 0v1536h239v-604q56 80 136.5 125t179.5 45q84 0 154.5 -25t120.5 -77.5t78 -135t28 -197.5v-667h-239v669q0 62 -15.5 106.5t-44 73.5t-69.5 43t-93 14q-78 0 -138 -32.5t-98 -87.5v-786h-239z" />
<glyph unicode="i" d="M207 0v198h336v685h-336v199h577v-884h321v-198h-898zM523 1362q0 56 36 92.5t101 36.5q66 0 102.5 -36.5t36.5 -92.5t-36.5 -92.5t-102.5 -36.5q-65 0 -101 36.5t-36 92.5z" />
<glyph unicode="j" d="M219 -420l14 194q14 -3 37.5 -5.5t48 -4t47 -2t34.5 -0.5q45 0 84.5 11t69 36.5t46 68t16.5 105.5v900h-313v199h554v-1099q0 -106 -30 -184.5t-86.5 -131t-139 -78.5t-187.5 -26q-51 0 -99 3.5t-96 13.5zM595 1362q0 56 36 92.5t101 36.5q66 0 102.5 -36.5t36.5 -92.5 t-36.5 -92.5t-102.5 -36.5q-65 0 -101 36.5t-36 92.5z" />
<glyph unicode="k" d="M156 0v1536h239v-905l101 113l318 338h288l-418 -450l482 -632h-298l-343 473l-130 -124v-349h-239z" />
<glyph unicode="l" d="M199 0v198h344v1139h-344v199h585v-1338h330v-198h-915z" />
<glyph unicode="m" d="M84 0v1082h209l6 -114q32 63 86 98.5t130 35.5q69 0 114.5 -27.5t68.5 -85.5q32 52 82 82.5t121 30.5q53 0 97.5 -17.5t76 -55.5t49 -97t17.5 -142v-790h-222v792q0 65 -27.5 89.5t-70.5 24.5q-41 0 -65 -19.5t-35 -51.5v-835h-217v792q0 63 -25.5 88.5t-69.5 25.5 q-42 0 -66 -18t-37 -49v-839h-222z" />
<glyph unicode="n" d="M155 0v1082h216l15 -150q59 81 142.5 125.5t185.5 44.5q83 0 151.5 -24t118 -75t77 -132t27.5 -195v-676h-239v672q0 67 -15.5 112t-44 72t-69.5 38.5t-93 11.5q-79 0 -137.5 -35t-94.5 -95v-776h-240z" />
<glyph unicode="o" d="M111 530v21q0 117 34.5 218t99 175t157.5 116t211 42q119 0 212.5 -42t158 -116t98.5 -175t34 -218v-21q0 -118 -34 -219t-98.5 -174.5t-157.5 -115.5t-211 -42q-119 0 -212.5 42t-158 115.5t-99 174.5t-34.5 219zM350 530q0 -74 15.5 -139t48 -114.5t82.5 -78t119 -28.5 q67 0 116.5 28.5t82 78t48 114.5t15.5 139v21q0 72 -15.5 137t-48 114t-82 78t-118.5 29q-68 0 -118 -29t-82 -78t-47.5 -114t-15.5 -137v-21z" />
<glyph unicode="p" d="M156 -416v1498h220l10 -109q52 62 123.5 95.5t166.5 33.5q103 0 182.5 -40t133.5 -112.5t82 -174t28 -224.5v-21q0 -118 -28 -219t-82 -174.5t-132.5 -115t-180.5 -41.5q-92 0 -162.5 30t-121.5 86v-512h-239zM395 297q30 -56 81.5 -91t134.5 -35q66 0 114 29t78.5 78 t45 114t14.5 138v21q0 73 -15 137.5t-46 113t-79 76.5t-114 28q-80 0 -132 -34t-82 -91v-484z" />
<glyph unicode="q" d="M124 529v21q0 123 29 225t84.5 174.5t136 112.5t183.5 40q94 0 164 -32.5t122 -92.5l12 105h214v-1498h-239v507q-51 -54 -119 -82.5t-156 -28.5q-101 0 -181 41.5t-135.5 115t-85 174t-29.5 218.5zM363 529q0 -73 14.5 -138t45.5 -114t79 -77.5t114 -28.5q80 0 131 33.5 t83 90.5v496q-32 54 -83.5 86t-128.5 32q-67 0 -115 -28.5t-79 -77.5t-46 -114.5t-15 -138.5v-21z" />
<glyph unicode="r" d="M305 0v1082h224l11 -169q66 88 156.5 138.5t201.5 50.5q29 0 58 -2t55.5 -6t48.5 -8.5t37 -10.5l-34 -235q-110 25 -217 25q-120 0 -193.5 -50t-108.5 -139v-676h-239z" />
<glyph unicode="s" d="M147 341h232q3 -50 26 -85t59 -56.5t80 -31t89 -9.5q111 0 169 37.5t58 96.5q0 27 -11 49.5t-39.5 41t-78 34.5t-126.5 31q-96 20 -173.5 48t-133 67t-85.5 90.5t-30 119.5q0 66 31 125.5t88.5 104.5t140 71.5t184.5 26.5q108 0 193.5 -27t144.5 -73.5t90.5 -109.5 t31.5 -135h-239q0 32 -14 61.5t-42 52.5t-69.5 36.5t-95.5 13.5t-93.5 -11.5t-65.5 -30t-38.5 -43.5t-12.5 -52t9.5 -49t35.5 -40t72 -32.5t119 -27.5q102 -18 183.5 -45t139 -66t88.5 -92.5t31 -125.5t-33 -132t-94 -103.5t-146.5 -67.5t-191.5 -24q-118 0 -208 31.5 t-151 82.5t-92.5 116t-31.5 132z" />
<glyph unicode="t" d="M131 904v178h264v262h239v-262h409v-178h-409v-519q0 -61 14.5 -101t40.5 -64t61 -33.5t77 -9.5q31 0 64.5 3.5t65 8t58 10t44.5 10.5l27 -165q-26 -15 -62.5 -27.5t-79.5 -20.5t-89.5 -12.5t-91.5 -4.5q-81 0 -148.5 22.5t-116 70t-76 122t-27.5 178.5v532h-264z" />
<glyph unicode="u" d="M163 442v640h239v-642q0 -78 11.5 -129t35.5 -81t60 -42.5t86 -12.5q96 0 155 37.5t89 101.5v768h240v-1082h-216l-14 148q-55 -80 -133.5 -124.5t-175.5 -44.5q-84 0 -153.5 26t-119 82.5t-77 144t-27.5 210.5z" />
<glyph unicode="v" d="M84 1082h247l267 -780l17 -80l18 79l262 781h247l-424 -1082h-206z" />
<glyph unicode="w" d="M36 1082h215l109 -726l7 -69l11 69l155 726h157l157 -734l11 -72l9 79l105 727h216l-211 -1082h-201l-164 724l-2 13l-2 -12l-161 -725h-200z" />
<glyph unicode="x" d="M97 0l394 549l-382 533h265l254 -366l258 366h266l-382 -533l394 -549h-265l-268 379l-267 -379h-267z" />
<glyph unicode="y" d="M59 1082h264l261 -649l41 -130l304 779h265l-548 -1246q-18 -41 -47 -88.5t-71.5 -88.5t-101.5 -68.5t-138 -27.5q-33 0 -66.5 5.5t-59.5 12.5l34 186q7 0 19 -0.5t25 -1.5t24.5 -1.5t18.5 -0.5q35 0 62.5 20.5t48.5 47t34.5 52t19.5 34.5l71 134z" />
<glyph unicode="z" d="M140 0v158l618 730h-608v194h930v-153l-625 -738h654v-191h-969z" />
<glyph unicode="{" d="M315 530v176q134 0 199.5 61.5t65.5 201.5v163q0 52 8.5 107t27.5 107t48.5 97.5t72 79.5t98 54t125.5 20l27 -139q-66 1 -103 -28.5t-54 -76.5t-20.5 -105.5t-3.5 -115.5v-163q0 -119 -57 -211t-177 -140q121 -48 177.5 -139t56.5 -210v-163q0 -57 7.5 -115.5t28 -105.5 t55.5 -76.5t90 -28.5l-27 -140q-66 0 -120 20t-96.5 54t-73 80t-51 98t-30 106.5t-9.5 107.5v163q0 139 -65.5 200t-199.5 61z" />
<glyph unicode="|" d="M534 -410v1866h167v-1866h-167z" />
<glyph unicode="}" d="M327 -220q55 -1 90 28.5t55 76.5t28 105.5t8 115.5v163q0 117 55 208.5t172 140.5q-117 49 -172 141t-55 210v163q0 57 -3.5 115.5t-20.5 105.5t-54 76.5t-103 28.5l27 139q70 0 125.5 -20t98 -54t72 -79.5t48.5 -97.5t27.5 -107t8.5 -107v-163q0 -140 65 -201.5 t200 -61.5v-176q-135 0 -200 -61t-65 -200v-163q0 -52 -9.5 -107t-30 -107t-51 -98t-73 -80t-96.5 -54t-120 -20z" />
<glyph unicode="~" d="M36 465q0 74 22 138t62.5 111t96.5 73.5t124 26.5q90 0 164.5 -35t150.5 -100q54 -45 99.5 -67.5t94.5 -22.5q30 0 57 14.5t47 39t32 56.5t12 66l165 -19q0 -74 -22.5 -139.5t-63 -114t-97 -76.5t-123.5 -28q-45 0 -85 8.5t-77.5 25.5t-74.5 42.5t-77 60.5 q-52 42 -99 65.5t-97 23.5q-30 0 -57 -14t-47.5 -37t-33 -53.5t-12.5 -64.5z" />
<glyph unicode="&#xa0;" />
<glyph unicode="&#xa1;" d="M487 966q0 58 36.5 97.5t104.5 39.5t105.5 -39.5t37.5 -97.5q0 -57 -37.5 -94.5t-105.5 -37.5t-104.5 37.5t-36.5 94.5zM505 -377l9 961h226l8 -961h-243z" />
<glyph unicode="&#xa2;" d="M142 522v36q0 98 24.5 186.5t73.5 160t122.5 120.5t170.5 67v226h200v-223q81 -13 147.5 -47.5t114.5 -86.5t74.5 -119.5t25.5 -146.5h-226q1 44 -15.5 83t-47.5 68t-73 46t-92 17q-75 0 -125 -30.5t-80 -80t-42.5 -112.5t-12.5 -128v-36q0 -66 12.5 -129t42.5 -112.5 t80 -80t126 -30.5q44 0 85.5 14t73.5 39t50.5 59t17.5 74h226q1 -68 -27.5 -129t-77.5 -110t-115.5 -83t-141.5 -47v-232h-200v234q-98 18 -171 67t-122 120t-73.5 159.5t-24.5 186.5z" />
<glyph unicode="&#xa3;" d="M112 604v190h155l-8 246q0 103 34 184.5t94 137t143 85t182 29.5q102 0 182 -28.5t134.5 -81t83.5 -126t29 -163.5h-235q0 56 -17 95.5t-45.5 64t-66 35.5t-77.5 11q-42 0 -78.5 -16t-64 -46.5t-43 -76t-15.5 -104.5l8 -246h312v-190h-305l7 -186q0 -66 -15 -123 t-48 -102h704v-193h-1047v193h80q25 6 41.5 29.5t26 55t13 67.5t3.5 67l-6 192h-161z" />
<glyph unicode="&#xa4;" d="M93 118l108 110q-35 60 -54 131t-19 149q0 83 21.5 157t59.5 136l-116 119l141 144l114 -117q60 42 129.5 64.5t146.5 22.5t147 -23t130 -65l116 119l142 -145l-120 -123q38 -62 58.5 -135t20.5 -154q0 -78 -18.5 -147.5t-52.5 -129.5l112 -113l-142 -145l-103 105 q-61 -48 -135 -73t-155 -25t-154.5 25t-135.5 71l-100 -102zM314 508q0 -72 24 -134.5t66 -109t98.5 -73t121.5 -26.5q64 0 120.5 26.5t98.5 73t66 109t24 134.5t-24 134t-66 107.5t-98.5 72t-120.5 26.5q-65 0 -121.5 -26.5t-98.5 -72t-66 -107.5t-24 -134z" />
<glyph unicode="&#xa5;" d="M25 1456h269l325 -642l324 642h269l-398 -714h278v-147h-357v-143h357v-146h-357v-306h-240v306h-358v146h358v143h-358v147h287z" />
<glyph unicode="&#xa6;" d="M496 -270v795h226v-795h-226zM496 698v758h226v-758h-226z" />
<glyph unicode="&#xa7;" d="M84 -51l239 2q0 -68 26.5 -113t68.5 -72t94.5 -38t105.5 -11q64 0 113 13t82.5 36.5t51 56t17.5 70.5q0 40 -15.5 69.5t-53 55t-99.5 49t-155 51.5q-111 30 -198 65t-147.5 84.5t-92.5 116t-32 159.5q0 92 44 161t125 112q-65 50 -99 118t-34 168q0 85 35.5 154 t101.5 118t159.5 75.5t208.5 26.5q118 0 211.5 -28t159 -82.5t100.5 -134.5t35 -184h-239q0 49 -17.5 92t-51 75.5t-83.5 51t-115 18.5q-69 0 -119 -14.5t-82.5 -39t-48 -57t-15.5 -69.5q0 -44 13.5 -74.5t49.5 -55.5t98 -47.5t159 -48.5q113 -30 201 -66t148 -85 t91.5 -115.5t31.5 -158.5q0 -94 -44.5 -162.5t-125.5 -110.5q65 -50 99.5 -118t34.5 -167q0 -89 -35.5 -158t-101.5 -116.5t-159 -72t-207 -24.5q-66 0 -131 9t-124.5 29.5t-110.5 53t-88.5 80t-58.5 110t-21 143.5zM327 557q0 -45 13.5 -77t49.5 -58t98 -49.5t159 -51.5 q43 -12 82.5 -24t74.5 -25q57 23 87 66t30 100q0 41 -16 72.5t-53.5 58.5t-100 52t-155.5 53q-43 11 -82.5 23.5t-75.5 25.5q-57 -21 -84 -64.5t-27 -101.5z" />
<glyph unicode="&#xa8;" d="M273 1366q0 50 33.5 84t92.5 34t92.5 -34t33.5 -84t-33.5 -83.5t-92.5 -33.5t-92.5 33.5t-33.5 83.5zM728 1365q0 50 33 83.5t92 33.5t92.5 -33.5t33.5 -83.5t-33.5 -84t-92.5 -34t-92 34t-33 84z" />
<glyph unicode="&#xa9;" d="M90 542q0 118 42 220.5t114.5 178t169.5 118.5t207 43t206.5 -43t168.5 -118.5t114 -178t42 -220.5q0 -119 -42 -221.5t-114 -178.5t-168.5 -119t-206.5 -43t-207 43t-169.5 119t-114.5 178.5t-42 221.5zM181 542q0 -99 34.5 -185t94.5 -149.5t140.5 -99.5t172.5 -36 q91 0 171 36t140 99.5t94.5 149.5t34.5 185t-34.5 184t-94.5 148t-140 98.5t-171 35.5q-92 0 -172.5 -35.5t-140.5 -98.5t-94.5 -148t-34.5 -184zM351 496v90q0 64 18 117.5t52 92t82.5 60t108.5 21.5q117 0 184.5 -59.5t67.5 -177.5h-117q0 72 -34 103.5t-101 31.5 q-36 0 -63.5 -14t-45.5 -39t-27.5 -59.5t-9.5 -75.5v-91q0 -42 9.5 -76.5t27.5 -59t45.5 -38.5t63.5 -14q67 0 100.5 30t33.5 104h117q0 -119 -67.5 -177t-183.5 -58q-60 0 -108.5 21t-82.5 59t-52 91t-18 118z" />
<glyph unicode="&#xaa;" d="M276 919q0 111 83.5 171t247.5 60h137v51q0 62 -28.5 94.5t-87.5 32.5q-65 0 -101.5 -25.5t-36.5 -73.5l-173 14q0 51 22 93.5t63 73.5t98 48.5t128 17.5q66 0 119.5 -17.5t91.5 -52t59 -86t21 -120.5v-314q0 -49 6 -93t20 -88h-177q-15 43 -21 94q-14 -21 -34.5 -40.5 t-48 -34.5t-62.5 -24t-77 -9q-60 0 -106.5 16t-78 46t-48 72t-16.5 94zM451 923q0 -42 28.5 -65t88.5 -23q26 0 53.5 8t52 21.5t43 30t27.5 33.5v105h-136q-39 0 -68 -9t-49 -24t-30 -35t-10 -42z" />
<glyph unicode="&#xab;" d="M196 494v19l288 390h166l-248 -400l248 -399h-166zM553 494v19l288 390h166l-248 -400l248 -399h-166z" />
<glyph unicode="&#xac;" d="M186 634v171h835v-431h-200v260h-635z" />
<glyph unicode="&#xad;" d="M249 542v193h801v-193h-801z" />
<glyph unicode="&#xae;" d="M88 541q0 119 42 221.5t114 178t169 118.5t207 43t207 -43t169 -118.5t114 -178t42 -221.5t-42 -221.5t-114 -178.5t-169 -119t-207 -43t-207 43t-169 119t-114 178.5t-42 221.5zM179 541q0 -99 34.5 -184.5t94.5 -148.5t140.5 -99t171.5 -36t171.5 36t140.5 99 t94.5 148.5t34.5 184.5t-34.5 184.5t-94.5 148.5t-140.5 98.5t-171.5 35.5t-171.5 -35.5t-140.5 -98.5t-94.5 -148.5t-34.5 -184.5zM399 232v637h211q111 0 177.5 -48t66.5 -145q0 -56 -35 -95t-101 -62l146 -287h-116l-117 252h-119v-252h-113zM512 585h114q22 0 43 6 t37 17t25.5 27t9.5 37q0 55 -29 76t-102 21h-98v-184z" />
<glyph unicode="&#xaf;" d="M263 1299v157h726v-157h-726z" />
<glyph unicode="&#xb0;" d="M358 1208q0 55 21 103.5t57 85t84 58t102 21.5q53 0 100 -21.5t82.5 -58t56 -85t20.5 -103.5t-20.5 -103t-56 -84t-82.5 -56.5t-100 -20.5q-54 0 -102 20.5t-84 56.5t-57 84t-21 103zM496 1208q0 -27 10 -49.5t27.5 -39t40 -26t48.5 -9.5q25 0 47.5 9.5t38.5 26t25.5 39 t9.5 49.5t-9.5 50.5t-25.5 41t-38.5 27t-47.5 9.5q-26 0 -48.5 -9.5t-40 -27t-27.5 -41t-10 -50.5z" />
<glyph unicode="&#xb1;" d="M152 700v196h359v379h212v-379h345v-196h-345v-390h-212v390h-359zM182 1v193h847v-193h-847z" />
<glyph unicode="&#xb2;" d="M306 1199q0 55 21 103.5t60 85t95.5 58t127.5 21.5q142 0 220.5 -64.5t78.5 -178.5q0 -42 -13.5 -77.5t-39.5 -70t-64 -70.5t-87 -77l-142 -115h372v-147h-611v124l287 264q62 55 87 97.5t25 70.5q0 42 -27.5 69t-79.5 27q-32 0 -55.5 -9.5t-39 -26t-23 -38t-7.5 -46.5 h-185z" />
<glyph unicode="&#xb3;" d="M307 894h185q0 -38 34.5 -65t94.5 -27q64 0 94.5 28t30.5 70q0 57 -36.5 80t-102.5 23h-87v128h87q64 0 95 27t31 71q0 18 -6.5 34t-20.5 28t-36 19.5t-53 7.5q-49 0 -81.5 -20t-32.5 -55h-185q0 53 23.5 94.5t63.5 70t93.5 43.5t113.5 15q68 0 124.5 -14.5t97 -43 t62.5 -71t22 -97.5q0 -58 -35.5 -102t-99.5 -68q73 -20 111 -65t38 -118q0 -56 -24.5 -99t-67.5 -72.5t-101.5 -45t-126.5 -15.5q-56 0 -111 13.5t-98 42t-69.5 74t-26.5 109.5z" />
<glyph unicode="&#xb4;" d="M392 1205l185 273h274l-277 -273h-182z" />
<glyph unicode="&#xb5;" d="M178 -416v1498h239v-620q0 -91 15 -147.5t41.5 -88t62.5 -43t79 -11.5q91 0 145.5 32.5t83.5 90.5v787h239v-1082h-219l-7 88q-44 -52 -103.5 -80.5t-137.5 -28.5q-122 0 -199 56v-451h-239z" />
<glyph unicode="&#xb6;" d="M211 988q0 100 32 186t94.5 148.5t154.5 98t211 35.5h291v-1456h-208v520h-83q-119 0 -211 35t-154.5 97.5t-94.5 148.5t-32 187z" />
<glyph unicode="&#xb7;" d="M496 716q0 28 9.5 52.5t27 42.5t43.5 28t59 10t59 -10t44 -28t27.5 -42.5t9.5 -52.5t-9.5 -52t-27.5 -42t-44 -28t-59 -10t-59 10t-43.5 28t-27 42t-9.5 52z" />
<glyph unicode="&#xb8;" d="M448 -136l31 138h175l-12 -53q28 -5 55 -16.5t48 -32t34 -51t13 -73.5q0 -50 -20.5 -91t-61.5 -70t-101.5 -45t-140.5 -16l-7 136q30 0 55 5t43.5 15.5t29 27.5t10.5 41q0 45 -35.5 62.5t-115.5 22.5z" />
<glyph unicode="&#xb9;" d="M388 1185v145l366 119h19v-787h-184v572z" />
<glyph unicode="&#xba;" d="M267 1024v117q0 73 24 134.5t69 106t109 69.5t144 25q81 0 145 -25t109 -69.5t69 -106t24 -134.5v-117q0 -73 -24 -134.5t-68.5 -105.5t-108.5 -69t-144 -25t-144.5 25t-109.5 69t-69.5 105.5t-24.5 134.5zM442 1024q0 -41 10.5 -75t32 -59.5t54 -39.5t76.5 -14 q43 0 75 14t53 39.5t31.5 59.5t10.5 75v117q0 40 -10.5 74t-32 59t-54 39.5t-75.5 14.5t-75 -14.5t-53.5 -39.5t-32 -59t-10.5 -74v-117z" />
<glyph unicode="&#xbb;" d="M233 139l248 399l-248 400h166l289 -390v-19l-289 -390h-166zM594 139l248 399l-248 400h166l289 -390v-19l-289 -390h-166z" />
<glyph unicode="&#xbc;" d="M57 1222v130l329 107h18v-708h-166v515zM291 300l511 938l126 -68l-511 -938zM585 255l328 455h169v-428h87v-135h-87v-147h-168v147h-321zM747 282h167v217l-10 -17z" />
<glyph unicode="&#xbd;" d="M28 1220v130l329 107h18v-708h-166v515zM225 300l511 938l126 -68l-511 -938zM625 479q0 49 18.5 93t54 76.5t86 52t114.5 19.5q128 0 198.5 -58t70.5 -161q0 -37 -12 -69t-35.5 -63t-57.5 -63.5t-78 -69.5l-128 -104h335v-132h-550v112l258 237q56 50 78.5 88t22.5 63 q0 38 -25 62.5t-71 24.5q-29 0 -50.5 -8.5t-35 -23.5t-20.5 -34.5t-7 -41.5h-166z" />
<glyph unicode="&#xbe;" d="M35 949h166q0 -34 31 -58.5t85 -24.5q58 0 85.5 25.5t27.5 63.5q0 51 -33 71.5t-92 20.5h-79v116h79q57 0 85 24t28 64q0 16 -6 30.5t-18.5 25t-32 17.5t-47.5 7q-44 0 -73.5 -18t-29.5 -50h-166q0 48 21 85.5t57 63t84 39t102 13.5q61 0 112 -13t87.5 -38.5t56.5 -64 t20 -87.5q0 -53 -32 -92.5t-90 -60.5q66 -18 100 -58.5t34 -106.5q0 -50 -22 -89t-60.5 -65.5t-91.5 -40.5t-114 -14q-50 0 -99.5 12t-88.5 38t-62.5 67t-23.5 98zM367 300l511 938l126 -68l-511 -938zM625 255l328 455h169v-428h87v-135h-87v-147h-168v147h-321zM787 282 h167v217l-10 -17z" />
<glyph unicode="&#xbf;" d="M200 -7q0 70 23.5 131.5t60.5 115.5t83.5 102t91.5 91q30 29 45.5 52.5t22.5 48t8 53.5t1 68h225q-1 -71 -4.5 -118.5t-17 -84t-41.5 -69.5t-77 -74q-30 -34 -62.5 -70t-59 -74.5t-43.5 -80.5t-17 -88q0 -94 49.5 -142t139.5 -48q37 0 72.5 10t62.5 32t44 56t17 82h240 q-2 -93 -35.5 -164t-91.5 -119t-137 -72t-170 -24q-102 0 -181.5 25.5t-135 74.5t-84.5 121t-29 165zM520 963q0 26 7 49t22 40t39 26.5t58 9.5t58.5 -9.5t40 -26.5t23 -40t7.5 -49q0 -25 -7.5 -47t-23 -38t-40 -25.5t-58.5 -9.5t-58 9.5t-39 25.5t-22 38t-7 47z" />
<glyph unicode="&#xc0;" d="M52 0l473 1456h211l464 -1456h-247l-98 338h-455l-100 -338h-248zM281 1826h273l176 -273h-190zM461 543h334l-165 571z" />
<glyph unicode="&#xc1;" d="M52 0l473 1456h211l464 -1456h-247l-98 338h-455l-100 -338h-248zM461 543h334l-165 571zM527 1550l185 273h274l-277 -273h-182z" />
<glyph unicode="&#xc2;" d="M52 0l473 1456h211l464 -1456h-247l-98 338h-455l-100 -338h-248zM292 1597v29l269 240h140l272 -242v-27h-192l-150 137l-149 -137h-190zM461 543h334l-165 571z" />
<glyph unicode="&#xc3;" d="M52 0l473 1456h211l464 -1456h-247l-98 338h-455l-100 -338h-248zM275 1632q0 45 15.5 88t43 77t66.5 54.5t87 20.5q41 0 75.5 -14t67 -31t65.5 -31t72 -14q19 0 36.5 7.5t30.5 21t20.5 33t7.5 42.5l125 -32q0 -46 -15.5 -88.5t-43.5 -75.5t-67.5 -52.5t-86.5 -19.5 q-50 0 -84.5 14t-64.5 31t-60.5 31t-70.5 14q-19 0 -36 -7.5t-30 -21.5t-20.5 -33t-7.5 -42zM461 543h334l-165 571z" />
<glyph unicode="&#xc4;" d="M52 0l473 1456h211l464 -1456h-247l-98 338h-455l-100 -338h-248zM274 1715q0 50 33.5 84t92.5 34t92.5 -34t33.5 -84t-33.5 -83.5t-92.5 -33.5t-92.5 33.5t-33.5 83.5zM461 543h334l-165 571zM729 1714q0 50 33 83.5t92 33.5t92.5 -33.5t33.5 -83.5t-33.5 -84t-92.5 -34 t-92 34t-33 84z" />
<glyph unicode="&#xc5;" d="M52 0l473 1456h211l464 -1456h-247l-98 338h-455l-100 -338h-248zM420 1734q0 43 17 79t45.5 62.5t67 41.5t82.5 15q43 0 81 -15t66 -41.5t44 -62.5t16 -79q0 -44 -16 -79.5t-44 -61.5t-66 -40t-81 -14q-44 0 -82.5 14t-67 40t-45.5 61.5t-17 79.5zM461 543h334l-165 571 zM529 1734q0 -22 8 -40.5t22.5 -32t33 -21.5t39.5 -8q42 0 70 28.5t28 73.5q0 46 -28 75t-70 29q-21 0 -39.5 -7.5t-33 -21.5t-22.5 -33t-8 -42z" />
<glyph unicode="&#xc6;" d="M37 0l521 1456h609v-194h-287v-412h256v-194h-256v-463h309v-193h-537v340h-260l-106 -340h-249zM459 553h193v614z" />
<glyph unicode="&#xc7;" d="M91 628v199q1 133 35 251.5t100.5 207t165.5 140t230 51.5q115 0 205 -34t154 -96t102 -151t49 -198h-240q-6 64 -24.5 116.5t-50.5 90t-80.5 57.5t-114.5 20q-81 0 -136 -37t-89 -99.5t-48.5 -144.5t-14.5 -172v-201q0 -94 14.5 -176.5t47.5 -144.5t88 -98t137 -36 q126 0 192 71.5t78 202.5h241q-10 -105 -50 -191.5t-106 -148t-155.5 -95t-199.5 -33.5q-133 0 -232 51.5t-165 139.5t-99 206t-34 252zM502 -134l31 138h175l-12 -53q28 -5 55 -16.5t48 -32t34 -51t13 -73.5q0 -50 -20.5 -91t-61.5 -70t-101.5 -45t-140.5 -16l-7 136 q30 0 55 5t43.5 15.5t29 27.5t10.5 41q0 45 -35.5 62.5t-115.5 22.5z" />
<glyph unicode="&#xc8;" d="M162 0v1456h935v-198h-694v-411h599v-194h-599v-457h701v-196h-942zM286 1821h273l176 -273h-190z" />
<glyph unicode="&#xc9;" d="M162 0v1456h935v-198h-694v-411h599v-194h-599v-457h701v-196h-942zM532 1545l185 273h274l-277 -273h-182z" />
<glyph unicode="&#xca;" d="M162 0v1456h935v-198h-694v-411h599v-194h-599v-457h701v-196h-942zM297 1592v29l269 240h140l272 -242v-27h-192l-150 137l-149 -137h-190z" />
<glyph unicode="&#xcb;" d="M162 0v1456h935v-198h-694v-411h599v-194h-599v-457h701v-196h-942zM279 1710q0 50 33.5 84t92.5 34t92.5 -34t33.5 -84t-33.5 -83.5t-92.5 -33.5t-92.5 33.5t-33.5 83.5zM734 1709q0 50 33 83.5t92 33.5t92.5 -33.5t33.5 -83.5t-33.5 -84t-92.5 -34t-92 34t-33 84z" />
<glyph unicode="&#xcc;" d="M181 0v198h308v1059h-308v199h866v-199h-315v-1059h315v-198h-866zM230 1826h273l176 -273h-190z" />
<glyph unicode="&#xcd;" d="M181 0v198h308v1059h-308v199h866v-199h-315v-1059h315v-198h-866zM476 1550l185 273h274l-277 -273h-182z" />
<glyph unicode="&#xce;" d="M181 0v198h308v1059h-308v199h866v-199h-315v-1059h315v-198h-866zM241 1597v29l269 240h140l272 -242v-27h-192l-150 137l-149 -137h-190z" />
<glyph unicode="&#xcf;" d="M181 0v198h308v1059h-308v199h866v-199h-315v-1059h315v-198h-866zM224 1715q0 50 33.5 84t92.5 34t92.5 -34t33.5 -84t-33.5 -83.5t-92.5 -33.5t-92.5 33.5t-33.5 83.5zM679 1714q0 50 33 83.5t92 33.5t92.5 -33.5t33.5 -83.5t-33.5 -84t-92.5 -34t-92 34t-33 84z" />
<glyph unicode="&#xd0;" horiz-adv-x="1259" d="M-35 651v170h202v635h356q150 -1 269.5 -50t203 -138t128.5 -212.5t46 -273.5v-110q-1 -150 -46 -273.5t-128 -212t-201 -137.5t-265 -49h-363v651h-202zM411 193h119q99 1 173 35.5t123.5 97t74 150.5t25.5 196v112q-1 105 -25.5 192t-74.5 150.5t-125.5 99t-177.5 36.5 h-112v-441h221v-170h-221v-458z" />
<glyph unicode="&#xd1;" d="M131 0v1456h243l472 -999l2 999h243v-1456h-242l-474 1002l-1 -1002h-243zM243 1632q0 45 15.5 88t43 77t66.5 54.5t87 20.5q41 0 75.5 -14t67 -31t65.5 -31t72 -14q19 0 36.5 7.5t30.5 21t20.5 33t7.5 42.5l125 -32q0 -46 -15.5 -88.5t-43.5 -75.5t-67.5 -52.5 t-86.5 -19.5q-50 0 -84.5 14t-64.5 31t-60.5 31t-70.5 14q-19 0 -36 -7.5t-30 -21.5t-20.5 -33t-7.5 -42z" />
<glyph unicode="&#xd2;" d="M91 634v186q0 86 14.5 168t43 154.5t71 134t100 105.5t130 69t159.5 25q132 0 230.5 -54t164.5 -144.5t99 -209.5t33 -248v-186q0 -129 -33 -247.5t-98.5 -209t-164 -144t-230.5 -53.5q-131 0 -228 54t-161.5 144.5t-97 208.5t-32.5 247zM275 1847h273l176 -273h-190z M332 634q1 -82 14 -162.5t44.5 -145t85 -104.5t134.5 -40q82 0 136.5 40t87.5 104t46.5 145t14.5 163v188q-1 82 -15 163t-47 144.5t-87.5 103t-136.5 39.5q-81 0 -134.5 -39.5t-85 -103.5t-44 -144.5t-13.5 -162.5v-188z" />
<glyph unicode="&#xd3;" d="M91 634v186q0 86 14.5 168t43 154.5t71 134t100 105.5t130 69t159.5 25q132 0 230.5 -54t164.5 -144.5t99 -209.5t33 -248v-186q0 -129 -33 -247.5t-98.5 -209t-164 -144t-230.5 -53.5q-131 0 -228 54t-161.5 144.5t-97 208.5t-32.5 247zM332 634q1 -82 14 -162.5 t44.5 -145t85 -104.5t134.5 -40q82 0 136.5 40t87.5 104t46.5 145t14.5 163v188q-1 82 -15 163t-47 144.5t-87.5 103t-136.5 39.5q-81 0 -134.5 -39.5t-85 -103.5t-44 -144.5t-13.5 -162.5v-188zM521 1571l185 273h274l-277 -273h-182z" />
<glyph unicode="&#xd4;" d="M91 634v186q0 86 14.5 168t43 154.5t71 134t100 105.5t130 69t159.5 25q132 0 230.5 -54t164.5 -144.5t99 -209.5t33 -248v-186q0 -129 -33 -247.5t-98.5 -209t-164 -144t-230.5 -53.5q-131 0 -228 54t-161.5 144.5t-97 208.5t-32.5 247zM286 1618v29l269 240h140 l272 -242v-27h-192l-150 137l-149 -137h-190zM332 634q1 -82 14 -162.5t44.5 -145t85 -104.5t134.5 -40q82 0 136.5 40t87.5 104t46.5 145t14.5 163v188q-1 82 -15 163t-47 144.5t-87.5 103t-136.5 39.5q-81 0 -134.5 -39.5t-85 -103.5t-44 -144.5t-13.5 -162.5v-188z" />
<glyph unicode="&#xd5;" d="M91 634v186q0 86 14.5 168t43 154.5t71 134t100 105.5t130 69t159.5 25q132 0 230.5 -54t164.5 -144.5t99 -209.5t33 -248v-186q0 -129 -33 -247.5t-98.5 -209t-164 -144t-230.5 -53.5q-131 0 -228 54t-161.5 144.5t-97 208.5t-32.5 247zM269 1653q0 45 15.5 88t43 77 t66.5 54.5t87 20.5q41 0 75.5 -14t67 -31t65.5 -31t72 -14q19 0 36.5 7.5t30.5 21t20.5 33t7.5 42.5l125 -32q0 -46 -15.5 -88.5t-43.5 -75.5t-67.5 -52.5t-86.5 -19.5q-50 0 -84.5 14t-64.5 31t-60.5 31t-70.5 14q-19 0 -36 -7.5t-30 -21.5t-20.5 -33t-7.5 -42zM332 634 q1 -82 14 -162.5t44.5 -145t85 -104.5t134.5 -40q82 0 136.5 40t87.5 104t46.5 145t14.5 163v188q-1 82 -15 163t-47 144.5t-87.5 103t-136.5 39.5q-81 0 -134.5 -39.5t-85 -103.5t-44 -144.5t-13.5 -162.5v-188z" />
<glyph unicode="&#xd6;" d="M91 634v186q0 86 14.5 168t43 154.5t71 134t100 105.5t130 69t159.5 25q132 0 230.5 -54t164.5 -144.5t99 -209.5t33 -248v-186q0 -129 -33 -247.5t-98.5 -209t-164 -144t-230.5 -53.5q-131 0 -228 54t-161.5 144.5t-97 208.5t-32.5 247zM269 1736q0 50 33.5 84t92.5 34 t92.5 -34t33.5 -84t-33.5 -83.5t-92.5 -33.5t-92.5 33.5t-33.5 83.5zM332 634q1 -82 14 -162.5t44.5 -145t85 -104.5t134.5 -40q82 0 136.5 40t87.5 104t46.5 145t14.5 163v188q-1 82 -15 163t-47 144.5t-87.5 103t-136.5 39.5q-81 0 -134.5 -39.5t-85 -103.5t-44 -144.5 t-13.5 -162.5v-188zM724 1735q0 50 33 83.5t92 33.5t92.5 -33.5t33.5 -83.5t-33.5 -84t-92.5 -34t-92 34t-33 84z" />
<glyph unicode="&#xd7;" d="M167 363l317 323l-317 323l147 148l316 -322l316 322l147 -148l-317 -323l317 -323l-147 -148l-316 322l-316 -322z" />
<glyph unicode="&#xd8;" d="M55 -95l160 277q-63 91 -94.5 207.5t-31.5 244.5v186q0 86 14.5 168t43 154.5t71 134t100 105.5t130 69t159.5 25q91 0 165 -26t134 -73l82 141h168l-146 -253q62 -90 92.5 -204.5t31.5 -240.5v-186q0 -129 -33 -247.5t-98.5 -209t-164 -144t-230.5 -53.5 q-88 0 -159.5 24.5t-129.5 68.5l-97 -168h-167zM330 634q0 -54 5.5 -107.5t18.5 -104.5l441 763q-33 40 -79 63.5t-109 23.5q-81 0 -134.5 -39.5t-85 -103.5t-44 -144.5t-13.5 -162.5v-188zM429 263q32 -38 75.5 -59.5t103.5 -21.5q82 0 136.5 40t87.5 104t46.5 145 t14.5 163v188q-1 52 -6.5 103t-16.5 99z" />
<glyph unicode="&#xd9;" d="M130 481l2 975h236l2 -975q1 -67 17 -123t46 -96.5t74.5 -63t103.5 -22.5q60 0 106 22.5t77 63t47 96.5t17 123l2 975h236l2 -975q-1 -112 -36 -204.5t-98 -158.5t-152.5 -102t-200.5 -36q-108 0 -196 36t-151 101.5t-98 158t-36 205.5zM294 1818h273l176 -273h-190z" />
<glyph unicode="&#xda;" d="M130 481l2 975h236l2 -975q1 -67 17 -123t46 -96.5t74.5 -63t103.5 -22.5q60 0 106 22.5t77 63t47 96.5t17 123l2 975h236l2 -975q-1 -112 -36 -204.5t-98 -158.5t-152.5 -102t-200.5 -36q-108 0 -196 36t-151 101.5t-98 158t-36 205.5zM540 1542l185 273h274l-277 -273 h-182z" />
<glyph unicode="&#xdb;" d="M130 481l2 975h236l2 -975q1 -67 17 -123t46 -96.5t74.5 -63t103.5 -22.5q60 0 106 22.5t77 63t47 96.5t17 123l2 975h236l2 -975q-1 -112 -36 -204.5t-98 -158.5t-152.5 -102t-200.5 -36q-108 0 -196 36t-151 101.5t-98 158t-36 205.5zM305 1589v29l269 240h140 l272 -242v-27h-192l-150 137l-149 -137h-190z" />
<glyph unicode="&#xdc;" d="M130 481l2 975h236l2 -975q1 -67 17 -123t46 -96.5t74.5 -63t103.5 -22.5q60 0 106 22.5t77 63t47 96.5t17 123l2 975h236l2 -975q-1 -112 -36 -204.5t-98 -158.5t-152.5 -102t-200.5 -36q-108 0 -196 36t-151 101.5t-98 158t-36 205.5zM287 1707q0 50 33.5 84t92.5 34 t92.5 -34t33.5 -84t-33.5 -83.5t-92.5 -33.5t-92.5 33.5t-33.5 83.5zM742 1706q0 50 33 83.5t92 33.5t92.5 -33.5t33.5 -83.5t-33.5 -84t-92.5 -34t-92 34t-33 84z" />
<glyph unicode="&#xdd;" d="M45 1456h268l303 -696l303 696h268l-454 -933l-2 -523h-233l-2 529zM515 1550l185 273h274l-277 -273h-182z" />
<glyph unicode="&#xde;" d="M149 0v1456h240v-281h247q124 0 219.5 -32.5t160.5 -91t98.5 -138.5t33.5 -175t-33.5 -175t-98.5 -138.5t-160.5 -91.5t-219.5 -33h-247v-300h-240zM389 492h247q73 0 124.5 20.5t84.5 55t48 78t15 90.5t-15 91.5t-48 79t-84.5 55.5t-124.5 21h-247v-491z" />
<glyph unicode="&#xdf;" d="M163 0v1079q0 117 32.5 207t90 151t137 92.5t172.5 31.5q78 0 147 -21.5t121 -65.5t82.5 -111t30.5 -157q0 -52 -9 -90.5t-22 -68.5t-29 -55t-29 -50t-22 -52.5t-9 -62.5q0 -40 21.5 -74.5t53 -68t69 -68.5t69 -76.5t53 -92t21.5 -113.5q0 -88 -26 -154.5t-74.5 -111 t-117.5 -67t-155 -22.5q-40 0 -83 4.5t-82.5 13t-72 20.5t-52.5 26l49 193q16 -10 40.5 -21.5t54.5 -21.5t63.5 -16.5t67.5 -6.5q38 0 66 11.5t46.5 32.5t27.5 49.5t9 62.5q0 44 -21.5 79.5t-53 68.5t-69 66.5t-69 74t-53 91t-21.5 117.5q0 41 9.5 74t23.5 61t31 53.5 t31 52.5t23.5 57.5t9.5 68.5q0 43 -13.5 76.5t-35.5 56.5t-49.5 34.5t-54.5 11.5q-41 0 -75.5 -18t-60.5 -54t-40.5 -91t-14.5 -129v-1077h-238z" />
<glyph unicode="&#xe0;" d="M134 303q0 174 129.5 266t371.5 92h175v71q0 86 -58 136.5t-164 50.5q-48 0 -84 -11.5t-60 -31.5t-36 -47t-12 -58h-239q0 63 29.5 122.5t86.5 106t139.5 74.5t188.5 28q96 0 178 -23.5t142 -70t94 -116t34 -162.5v-482q0 -71 10.5 -129.5t30.5 -101.5v-17h-245 q-10 20 -16.5 47t-11.5 58q-25 -26 -56.5 -48.5t-70 -39.5t-83 -27t-95.5 -10q-86 0 -155.5 24.5t-119 68t-76.5 102.5t-27 128zM260 1504h273l176 -273h-190zM373 328q0 -33 11 -61.5t33.5 -49t57 -32.5t82.5 -12q46 0 86.5 11.5t73 30t56 42.5t37.5 49v203h-152 q-146 0 -215.5 -47t-69.5 -134z" />
<glyph unicode="&#xe1;" d="M134 303q0 174 129.5 266t371.5 92h175v71q0 86 -58 136.5t-164 50.5q-48 0 -84 -11.5t-60 -31.5t-36 -47t-12 -58h-239q0 63 29.5 122.5t86.5 106t139.5 74.5t188.5 28q96 0 178 -23.5t142 -70t94 -116t34 -162.5v-482q0 -71 10.5 -129.5t30.5 -101.5v-17h-245 q-10 20 -16.5 47t-11.5 58q-25 -26 -56.5 -48.5t-70 -39.5t-83 -27t-95.5 -10q-86 0 -155.5 24.5t-119 68t-76.5 102.5t-27 128zM373 328q0 -33 11 -61.5t33.5 -49t57 -32.5t82.5 -12q46 0 86.5 11.5t73 30t56 42.5t37.5 49v203h-152q-146 0 -215.5 -47t-69.5 -134z M506 1228l185 273h274l-277 -273h-182z" />
<glyph unicode="&#xe2;" d="M134 303q0 174 129.5 266t371.5 92h175v71q0 86 -58 136.5t-164 50.5q-48 0 -84 -11.5t-60 -31.5t-36 -47t-12 -58h-239q0 63 29.5 122.5t86.5 106t139.5 74.5t188.5 28q96 0 178 -23.5t142 -70t94 -116t34 -162.5v-482q0 -71 10.5 -129.5t30.5 -101.5v-17h-245 q-10 20 -16.5 47t-11.5 58q-25 -26 -56.5 -48.5t-70 -39.5t-83 -27t-95.5 -10q-86 0 -155.5 24.5t-119 68t-76.5 102.5t-27 128zM271 1275v29l269 240h140l272 -242v-27h-192l-150 137l-149 -137h-190zM373 328q0 -33 11 -61.5t33.5 -49t57 -32.5t82.5 -12q46 0 86.5 11.5 t73 30t56 42.5t37.5 49v203h-152q-146 0 -215.5 -47t-69.5 -134z" />
<glyph unicode="&#xe3;" d="M134 303q0 174 129.5 266t371.5 92h175v71q0 86 -58 136.5t-164 50.5q-48 0 -84 -11.5t-60 -31.5t-36 -47t-12 -58h-239q0 63 29.5 122.5t86.5 106t139.5 74.5t188.5 28q96 0 178 -23.5t142 -70t94 -116t34 -162.5v-482q0 -71 10.5 -129.5t30.5 -101.5v-17h-245 q-10 20 -16.5 47t-11.5 58q-25 -26 -56.5 -48.5t-70 -39.5t-83 -27t-95.5 -10q-86 0 -155.5 24.5t-119 68t-76.5 102.5t-27 128zM254 1310q0 45 15.5 88t43 77t66.5 54.5t87 20.5q41 0 75.5 -14t67 -31t65.5 -31t72 -14q19 0 36.5 7.5t30.5 21t20.5 33t7.5 42.5l125 -32 q0 -46 -15.5 -88.5t-43.5 -75.5t-67.5 -52.5t-86.5 -19.5q-50 0 -84.5 14t-64.5 31t-60.5 31t-70.5 14q-19 0 -36 -7.5t-30 -21.5t-20.5 -33t-7.5 -42zM373 328q0 -33 11 -61.5t33.5 -49t57 -32.5t82.5 -12q46 0 86.5 11.5t73 30t56 42.5t37.5 49v203h-152 q-146 0 -215.5 -47t-69.5 -134z" />
<glyph unicode="&#xe4;" d="M134 303q0 174 129.5 266t371.5 92h175v71q0 86 -58 136.5t-164 50.5q-48 0 -84 -11.5t-60 -31.5t-36 -47t-12 -58h-239q0 63 29.5 122.5t86.5 106t139.5 74.5t188.5 28q96 0 178 -23.5t142 -70t94 -116t34 -162.5v-482q0 -71 10.5 -129.5t30.5 -101.5v-17h-245 q-10 20 -16.5 47t-11.5 58q-25 -26 -56.5 -48.5t-70 -39.5t-83 -27t-95.5 -10q-86 0 -155.5 24.5t-119 68t-76.5 102.5t-27 128zM254 1393q0 50 33.5 84t92.5 34t92.5 -34t33.5 -84t-33.5 -83.5t-92.5 -33.5t-92.5 33.5t-33.5 83.5zM373 328q0 -33 11 -61.5t33.5 -49 t57 -32.5t82.5 -12q46 0 86.5 11.5t73 30t56 42.5t37.5 49v203h-152q-146 0 -215.5 -47t-69.5 -134zM709 1392q0 50 33 83.5t92 33.5t92.5 -33.5t33.5 -83.5t-33.5 -84t-92.5 -34t-92 34t-33 84z" />
<glyph unicode="&#xe5;" d="M134 303q0 174 129.5 266t371.5 92h175v71q0 86 -58 136.5t-164 50.5q-48 0 -84 -11.5t-60 -31.5t-36 -47t-12 -58h-239q0 63 29.5 122.5t86.5 106t139.5 74.5t188.5 28q96 0 178 -23.5t142 -70t94 -116t34 -162.5v-482q0 -71 10.5 -129.5t30.5 -101.5v-17h-245 q-10 20 -16.5 47t-11.5 58q-25 -26 -56.5 -48.5t-70 -39.5t-83 -27t-95.5 -10q-86 0 -155.5 24.5t-119 68t-76.5 102.5t-27 128zM373 328q0 -33 11 -61.5t33.5 -49t57 -32.5t82.5 -12q46 0 86.5 11.5t73 30t56 42.5t37.5 49v203h-152q-146 0 -215.5 -47t-69.5 -134z M400 1412q0 43 17 79t45.5 62.5t67 41.5t82.5 15q43 0 81 -15t66 -41.5t44 -62.5t16 -79q0 -44 -16 -79.5t-44 -61.5t-66 -40t-81 -14q-44 0 -82.5 14t-67 40t-45.5 61.5t-17 79.5zM509 1412q0 -22 8 -40.5t22.5 -32t33 -21.5t39.5 -8q42 0 70 28.5t28 73.5q0 46 -28 75 t-70 29q-21 0 -39.5 -7.5t-33 -21.5t-22.5 -33t-8 -42z" />
<glyph unicode="&#xe6;" d="M44 291q0 169 110 260t323 91h26v131q0 65 -24.5 100.5t-75.5 35.5q-52 0 -81.5 -31.5t-29.5 -95.5l-228 9q0 71 23 128.5t66 98t104.5 62.5t137.5 22q75 0 135.5 -22t102.5 -65q43 42 100.5 65t129.5 22q77 0 138.5 -27t104.5 -77t66 -121.5t23 -161.5v-243h-476v-85 q0 -103 48 -159.5t160 -56.5q36 0 63.5 5.5t50.5 13.5t42.5 18.5t37.5 19.5l51 -168q-16 -12 -42.5 -26t-63 -26t-83 -20t-101.5 -8q-96 0 -167 33t-117 96q-18 -26 -42.5 -49.5t-55 -41t-68 -28t-81.5 -10.5q-74 0 -131.5 22t-96.5 62.5t-59 98t-20 128.5zM280 287 q0 -54 31.5 -89.5t94.5 -35.5q24 0 50 12t47 32v270h-24q-47 0 -84 -15.5t-62.5 -41.5t-39 -60.5t-13.5 -71.5zM719 642h253v121q0 31 -8 58t-23 46.5t-37 30.5t-51 11q-38 0 -63.5 -15.5t-41.5 -43.5t-22.5 -65.5t-6.5 -80.5v-62z" />
<glyph unicode="&#xe7;" d="M128 522v36q0 111 31.5 210t94.5 173t157 117.5t218 43.5q98 0 181.5 -30t144 -84t94 -129t32.5 -164h-226q1 44 -15.5 83t-47.5 68t-73 46t-92 17q-75 0 -125 -30.5t-80 -80t-42.5 -112.5t-12.5 -128v-36q0 -66 12.5 -129t42.5 -112.5t80 -80t126 -30.5q44 0 85.5 14 t73.5 39t50.5 59t17.5 74h226q1 -78 -35.5 -146.5t-99 -119.5t-144.5 -81t-172 -30q-125 0 -219 43t-157 117.5t-94.5 173t-31.5 209.5zM513 -134l31 138h175l-12 -53q28 -5 55 -16.5t48 -32t34 -51t13 -73.5q0 -50 -20.5 -91t-61.5 -70t-101.5 -45t-140.5 -16l-7 136 q30 0 55 5t43.5 15.5t29 27.5t10.5 41q0 45 -35.5 62.5t-115.5 22.5z" />
<glyph unicode="&#xe8;" d="M122 502v41q0 129 41.5 232t111 176t162 112t194.5 39q118 0 208 -39.5t150.5 -111t91.5 -169.5t31 -215v-101h-750q6 -63 31 -117t65.5 -93.5t95 -62t119.5 -22.5q91 0 167.5 36t124.5 99l130 -122q-26 -39 -67 -75.5t-96 -65t-123.5 -46t-149.5 -17.5q-120 0 -219 40 t-169.5 110t-109.5 165.5t-39 206.5zM260 1505h273l176 -273h-190zM369 642h507v18q-3 48 -18.5 92.5t-45.5 79.5t-75.5 56t-106.5 21q-50 0 -93 -18t-77 -52.5t-57.5 -84t-33.5 -112.5z" />
<glyph unicode="&#xe9;" d="M122 502v41q0 129 41.5 232t111 176t162 112t194.5 39q118 0 208 -39.5t150.5 -111t91.5 -169.5t31 -215v-101h-750q6 -63 31 -117t65.5 -93.5t95 -62t119.5 -22.5q91 0 167.5 36t124.5 99l130 -122q-26 -39 -67 -75.5t-96 -65t-123.5 -46t-149.5 -17.5q-120 0 -219 40 t-169.5 110t-109.5 165.5t-39 206.5zM369 642h507v18q-3 48 -18.5 92.5t-45.5 79.5t-75.5 56t-106.5 21q-50 0 -93 -18t-77 -52.5t-57.5 -84t-33.5 -112.5zM506 1229l185 273h274l-277 -273h-182z" />
<glyph unicode="&#xea;" d="M122 502v41q0 129 41.5 232t111 176t162 112t194.5 39q118 0 208 -39.5t150.5 -111t91.5 -169.5t31 -215v-101h-750q6 -63 31 -117t65.5 -93.5t95 -62t119.5 -22.5q91 0 167.5 36t124.5 99l130 -122q-26 -39 -67 -75.5t-96 -65t-123.5 -46t-149.5 -17.5q-120 0 -219 40 t-169.5 110t-109.5 165.5t-39 206.5zM271 1276v29l269 240h140l272 -242v-27h-192l-150 137l-149 -137h-190zM369 642h507v18q-3 48 -18.5 92.5t-45.5 79.5t-75.5 56t-106.5 21q-50 0 -93 -18t-77 -52.5t-57.5 -84t-33.5 -112.5z" />
<glyph unicode="&#xeb;" d="M122 502v41q0 129 41.5 232t111 176t162 112t194.5 39q118 0 208 -39.5t150.5 -111t91.5 -169.5t31 -215v-101h-750q6 -63 31 -117t65.5 -93.5t95 -62t119.5 -22.5q91 0 167.5 36t124.5 99l130 -122q-26 -39 -67 -75.5t-96 -65t-123.5 -46t-149.5 -17.5q-120 0 -219 40 t-169.5 110t-109.5 165.5t-39 206.5zM254 1394q0 50 33.5 84t92.5 34t92.5 -34t33.5 -84t-33.5 -83.5t-92.5 -33.5t-92.5 33.5t-33.5 83.5zM369 642h507v18q-3 48 -18.5 92.5t-45.5 79.5t-75.5 56t-106.5 21q-50 0 -93 -18t-77 -52.5t-57.5 -84t-33.5 -112.5zM709 1393 q0 50 33 83.5t92 33.5t92.5 -33.5t33.5 -83.5t-33.5 -84t-92.5 -34t-92 34t-33 84z" />
<glyph unicode="&#xec;" d="M199 0v198h344v685h-344v199h585v-884h330v-198h-915zM317 1478h273l176 -273h-190z" />
<glyph unicode="&#xed;" d="M199 0v198h344v685h-344v199h585v-884h330v-198h-915zM563 1203l185 273h274l-277 -273h-182z" />
<glyph unicode="&#xee;" d="M199 0v198h344v685h-344v199h585v-884h330v-198h-915zM328 1249v29l269 240h140l272 -242v-27h-192l-150 137l-149 -137h-190z" />
<glyph unicode="&#xef;" d="M199 0v198h344v685h-344v199h585v-884h330v-198h-915zM310 1367q0 50 33.5 84t92.5 34t92.5 -34t33.5 -84t-33.5 -83.5t-92.5 -33.5t-92.5 33.5t-33.5 83.5zM765 1366q0 50 33 83.5t92 33.5t92.5 -33.5t33.5 -83.5t-33.5 -84t-92.5 -34t-92 34t-33 84z" />
<glyph unicode="&#xf0;" d="M54 468q0 114 36 207t100.5 159t155 102.5t199.5 36.5q81 0 151.5 -27.5t125.5 -74.5q-22 92 -60 163.5t-89 125.5l-257 -144l-78 108l227 128q-70 45 -145 71l74 193q159 -40 285 -144l215 121l78 -109l-195 -109q99 -117 154.5 -276.5t55.5 -357.5v-64q0 -138 -40 -249 t-110.5 -188.5t-166.5 -119t-207 -41.5q-113 0 -207 38t-161 104.5t-104 155.5t-37 191zM293 468q0 -57 18 -110.5t53 -95.5t86 -67t117 -25q64 0 115.5 28.5t88 80t56.5 124t20 161.5v79v15.5t-1 15.5q-16 22 -42 42.5t-63 36t-84 25t-105 9.5q-60 0 -107.5 -26t-81.5 -70 t-52 -101.5t-18 -121.5z" />
<glyph unicode="&#xf1;" d="M155 0v1082h216l15 -150q59 81 142.5 125.5t185.5 44.5q83 0 151.5 -24t118 -75t77 -132t27.5 -195v-676h-239v672q0 67 -15.5 112t-44 72t-69.5 38.5t-93 11.5q-79 0 -137.5 -35t-94.5 -95v-776h-240zM250 1310q0 45 15.5 88t43 77t66.5 54.5t87 20.5q41 0 75.5 -14 t67 -31t65.5 -31t72 -14q19 0 36.5 7.5t30.5 21t20.5 33t7.5 42.5l125 -32q0 -46 -15.5 -88.5t-43.5 -75.5t-67.5 -52.5t-86.5 -19.5q-50 0 -84.5 14t-64.5 31t-60.5 31t-70.5 14q-19 0 -36 -7.5t-30 -21.5t-20.5 -33t-7.5 -42z" />
<glyph unicode="&#xf2;" d="M111 530v21q0 117 34.5 218t99 175t157.5 116t211 42q119 0 212.5 -42t158 -116t98.5 -175t34 -218v-21q0 -118 -34 -219t-98.5 -174.5t-157.5 -115.5t-211 -42q-119 0 -212.5 42t-158 115.5t-99 174.5t-34.5 219zM267 1504h273l176 -273h-190zM350 530q0 -74 15.5 -139 t48 -114.5t82.5 -78t119 -28.5q67 0 116.5 28.5t82 78t48 114.5t15.5 139v21q0 72 -15.5 137t-48 114t-82 78t-118.5 29q-68 0 -118 -29t-82 -78t-47.5 -114t-15.5 -137v-21z" />
<glyph unicode="&#xf3;" d="M111 530v21q0 117 34.5 218t99 175t157.5 116t211 42q119 0 212.5 -42t158 -116t98.5 -175t34 -218v-21q0 -118 -34 -219t-98.5 -174.5t-157.5 -115.5t-211 -42q-119 0 -212.5 42t-158 115.5t-99 174.5t-34.5 219zM350 530q0 -74 15.5 -139t48 -114.5t82.5 -78t119 -28.5 q67 0 116.5 28.5t82 78t48 114.5t15.5 139v21q0 72 -15.5 137t-48 114t-82 78t-118.5 29q-68 0 -118 -29t-82 -78t-47.5 -114t-15.5 -137v-21zM513 1228l185 273h274l-277 -273h-182z" />
<glyph unicode="&#xf4;" d="M111 530v21q0 117 34.5 218t99 175t157.5 116t211 42q119 0 212.5 -42t158 -116t98.5 -175t34 -218v-21q0 -118 -34 -219t-98.5 -174.5t-157.5 -115.5t-211 -42q-119 0 -212.5 42t-158 115.5t-99 174.5t-34.5 219zM278 1275v29l269 240h140l272 -242v-27h-192l-150 137 l-149 -137h-190zM350 530q0 -74 15.5 -139t48 -114.5t82.5 -78t119 -28.5q67 0 116.5 28.5t82 78t48 114.5t15.5 139v21q0 72 -15.5 137t-48 114t-82 78t-118.5 29q-68 0 -118 -29t-82 -78t-47.5 -114t-15.5 -137v-21z" />
<glyph unicode="&#xf5;" d="M111 530v21q0 117 34.5 218t99 175t157.5 116t211 42q119 0 212.5 -42t158 -116t98.5 -175t34 -218v-21q0 -118 -34 -219t-98.5 -174.5t-157.5 -115.5t-211 -42q-119 0 -212.5 42t-158 115.5t-99 174.5t-34.5 219zM261 1310q0 45 15.5 88t43 77t66.5 54.5t87 20.5 q41 0 75.5 -14t67 -31t65.5 -31t72 -14q19 0 36.5 7.5t30.5 21t20.5 33t7.5 42.5l125 -32q0 -46 -15.5 -88.5t-43.5 -75.5t-67.5 -52.5t-86.5 -19.5q-50 0 -84.5 14t-64.5 31t-60.5 31t-70.5 14q-19 0 -36 -7.5t-30 -21.5t-20.5 -33t-7.5 -42zM350 530q0 -74 15.5 -139 t48 -114.5t82.5 -78t119 -28.5q67 0 116.5 28.5t82 78t48 114.5t15.5 139v21q0 72 -15.5 137t-48 114t-82 78t-118.5 29q-68 0 -118 -29t-82 -78t-47.5 -114t-15.5 -137v-21z" />
<glyph unicode="&#xf6;" d="M111 530v21q0 117 34.5 218t99 175t157.5 116t211 42q119 0 212.5 -42t158 -116t98.5 -175t34 -218v-21q0 -118 -34 -219t-98.5 -174.5t-157.5 -115.5t-211 -42q-119 0 -212.5 42t-158 115.5t-99 174.5t-34.5 219zM261 1393q0 50 33.5 84t92.5 34t92.5 -34t33.5 -84 t-33.5 -83.5t-92.5 -33.5t-92.5 33.5t-33.5 83.5zM350 530q0 -74 15.5 -139t48 -114.5t82.5 -78t119 -28.5q67 0 116.5 28.5t82 78t48 114.5t15.5 139v21q0 72 -15.5 137t-48 114t-82 78t-118.5 29q-68 0 -118 -29t-82 -78t-47.5 -114t-15.5 -137v-21zM716 1392 q0 50 33 83.5t92 33.5t92.5 -33.5t33.5 -83.5t-33.5 -84t-92.5 -34t-92 34t-33 84z" />
<glyph unicode="&#xf7;" d="M111 583v211h1011v-211h-1011zM480 279q0 54 35 90.5t99 36.5t99 -36.5t35 -90.5t-35 -89.5t-99 -35.5t-99 35.5t-35 89.5zM482 1094q0 27 9 50t26 40t42 26.5t57 9.5t57 -9.5t42 -26.5t26 -40t9 -50q0 -54 -35 -89.5t-99 -35.5t-99 35.5t-35 89.5z" />
<glyph unicode="&#xf8;" d="M111 530v21q0 117 34.5 218t99 175t157.5 116t211 42q107 0 198 -37l72 147h144l-104 -211q94 -75 143.5 -191t49.5 -259v-21q0 -118 -34 -219t-98.5 -174.5t-157.5 -115.5t-211 -42q-98 0 -180 29l-71 -146h-144l101 205q-102 73 -156 193t-54 270zM350 530 q0 -78 17 -145t52 -117l303 617q-23 11 -50.5 17.5t-58.5 6.5q-68 0 -118 -29t-82 -78t-47.5 -114t-15.5 -137v-21zM523 186q39 -16 92 -16q67 0 116.5 28.5t82 78t48 114.5t15.5 139v21q0 69 -14 130.5t-43 109.5z" />
<glyph unicode="&#xf9;" d="M163 442v640h239v-642q0 -78 11.5 -129t35.5 -81t60 -42.5t86 -12.5q96 0 155 37.5t89 101.5v768h240v-1082h-216l-14 148q-55 -80 -133.5 -124.5t-175.5 -44.5q-84 0 -153.5 26t-119 82.5t-77 144t-27.5 210.5zM269 1483h273l176 -273h-190z" />
<glyph unicode="&#xfa;" d="M163 442v640h239v-642q0 -78 11.5 -129t35.5 -81t60 -42.5t86 -12.5q96 0 155 37.5t89 101.5v768h240v-1082h-216l-14 148q-55 -80 -133.5 -124.5t-175.5 -44.5q-84 0 -153.5 26t-119 82.5t-77 144t-27.5 210.5zM515 1207l185 273h274l-277 -273h-182z" />
<glyph unicode="&#xfb;" d="M163 442v640h239v-642q0 -78 11.5 -129t35.5 -81t60 -42.5t86 -12.5q96 0 155 37.5t89 101.5v768h240v-1082h-216l-14 148q-55 -80 -133.5 -124.5t-175.5 -44.5q-84 0 -153.5 26t-119 82.5t-77 144t-27.5 210.5zM280 1254v29l269 240h140l272 -242v-27h-192l-150 137 l-149 -137h-190z" />
<glyph unicode="&#xfc;" d="M163 442v640h239v-642q0 -78 11.5 -129t35.5 -81t60 -42.5t86 -12.5q96 0 155 37.5t89 101.5v768h240v-1082h-216l-14 148q-55 -80 -133.5 -124.5t-175.5 -44.5q-84 0 -153.5 26t-119 82.5t-77 144t-27.5 210.5zM263 1372q0 50 33.5 84t92.5 34t92.5 -34t33.5 -84 t-33.5 -83.5t-92.5 -33.5t-92.5 33.5t-33.5 83.5zM718 1371q0 50 33 83.5t92 33.5t92.5 -33.5t33.5 -83.5t-33.5 -84t-92.5 -34t-92 34t-33 84z" />
<glyph unicode="&#xfd;" d="M59 1082h264l261 -649l41 -130l304 779h265l-548 -1246q-18 -41 -47 -88.5t-71.5 -88.5t-101.5 -68.5t-138 -27.5q-33 0 -66.5 5.5t-59.5 12.5l34 186q7 0 19 -0.5t25 -1.5t24.5 -1.5t18.5 -0.5q35 0 62.5 20.5t48.5 47t34.5 52t19.5 34.5l71 134zM536 1207l185 273h274 l-277 -273h-182z" />
<glyph unicode="&#xfe;" d="M156 -416v1967h239v-569q52 58 122 89t162 31q103 0 182 -40t132.5 -112.5t81 -174t27.5 -224.5v-21q0 -118 -27.5 -219t-81 -174.5t-132 -115t-180.5 -41.5q-93 0 -163.5 30t-122.5 87v-513h-239zM395 299q30 -57 82 -92.5t136 -35.5q66 0 113.5 29t78 78t44.5 114 t14 138v21q0 73 -14.5 137.5t-45 113t-78.5 76.5t-114 28q-81 0 -133 -34.5t-83 -91.5v-481z" />
<glyph unicode="&#xff;" d="M59 1082h264l261 -649l41 -130l304 779h265l-548 -1246q-18 -41 -47 -88.5t-71.5 -88.5t-101.5 -68.5t-138 -27.5q-33 0 -66.5 5.5t-59.5 12.5l34 186q7 0 19 -0.5t25 -1.5t24.5 -1.5t18.5 -0.5q35 0 62.5 20.5t48.5 47t34.5 52t19.5 34.5l71 134zM283 1372q0 50 33.5 84 t92.5 34t92.5 -34t33.5 -84t-33.5 -83.5t-92.5 -33.5t-92.5 33.5t-33.5 83.5zM738 1371q0 50 33 83.5t92 33.5t92.5 -33.5t33.5 -83.5t-33.5 -84t-92.5 -34t-92 34t-33 84z" />
<glyph unicode="&#x152;" d="M75 496v464q0 132 31 229.5t87.5 161.5t134.5 95t171 31q71 0 139 -6.5t131 -14.5h410v-189h-367v-418h316v-189h-316v-464h378v-196h-421q-63 -8 -130 -14.5t-138 -6.5q-93 0 -171.5 31t-135 95t-88 161.5t-31.5 229.5zM296 496q0 -96 14 -158.5t40.5 -98.5t64.5 -50 t86 -14q46 0 91 3v1106q-23 2 -46.5 3t-46.5 1q-48 0 -85.5 -14t-63.5 -51t-40 -100t-14 -161v-466z" />
<glyph unicode="&#x153;" d="M44 440v201q0 108 24 193.5t69.5 145t111 91t149.5 31.5q75 0 135.5 -26t104.5 -76q43 51 99.5 77t122.5 25q81 0 143 -31.5t104 -88t63 -135t21 -173.5v-202h-433v-46q0 -122 39 -188.5t122 -66.5q58 0 96 15.5t70 37.5l59 -156q-35 -35 -93 -61.5t-146 -26.5 q-166 0 -263 105q-45 -51 -105 -78t-137 -27q-84 0 -150.5 31t-112 90.5t-69.5 145t-24 193.5zM275 440q0 -128 28 -198.5t97 -70.5q67 0 95.5 70.5t28.5 198.5v201q0 62 -7 112t-22 84.5t-39 53t-58 18.5q-33 0 -56.5 -18.5t-38.5 -53t-21.5 -84.5t-6.5 -112v-201zM758 649 h205v85q0 37 -6 69t-18.5 55.5t-32 37t-46.5 13.5q-56 0 -79 -68t-23 -192z" />
<glyph unicode="&#x178;" d="M45 1456h268l303 -696l303 696h268l-454 -933l-2 -523h-233l-2 529zM263 1715q0 50 33.5 84t92.5 34t92.5 -34t33.5 -84t-33.5 -83.5t-92.5 -33.5t-92.5 33.5t-33.5 83.5zM718 1714q0 50 33 83.5t92 33.5t92.5 -33.5t33.5 -83.5t-33.5 -84t-92.5 -34t-92 34t-33 84z" />
<glyph unicode="&#x2c6;" d="M150 1248v29l269 240h140l272 -242v-27h-192l-150 137l-149 -137h-190z" />
<glyph unicode="&#x2dc;" d="M132 1280q0 45 15.5 88t43 77t66.5 54.5t87 20.5q41 0 75.5 -14t67 -31t65.5 -31t72 -14q19 0 36.5 7.5t30.5 21t20.5 33t7.5 42.5l125 -32q0 -46 -15.5 -88.5t-43.5 -75.5t-67.5 -52.5t-86.5 -19.5q-50 0 -84.5 14t-64.5 31t-60.5 31t-70.5 14q-19 0 -36 -7.5t-30 -21.5 t-20.5 -33t-7.5 -42z" />
<glyph unicode="&#x2000;" horiz-adv-x="966" />
<glyph unicode="&#x2001;" horiz-adv-x="1932" />
<glyph unicode="&#x2002;" horiz-adv-x="966" />
<glyph unicode="&#x2003;" horiz-adv-x="1932" />
<glyph unicode="&#x2004;" horiz-adv-x="644" />
<glyph unicode="&#x2005;" horiz-adv-x="483" />
<glyph unicode="&#x2006;" horiz-adv-x="322" />
<glyph unicode="&#x2007;" horiz-adv-x="322" />
<glyph unicode="&#x2008;" horiz-adv-x="241" />
<glyph unicode="&#x2009;" horiz-adv-x="386" />
<glyph unicode="&#x200a;" horiz-adv-x="107" />
<glyph unicode="&#x2010;" d="M249 542v193h801v-193h-801z" />
<glyph unicode="&#x2011;" d="M249 542v193h801v-193h-801z" />
<glyph unicode="&#x2012;" d="M249 542v193h801v-193h-801z" />
<glyph unicode="&#x2013;" d="M67 623v193h1101v-193h-1101z" />
<glyph unicode="&#x2014;" d="M67 623v193h1101v-193h-1101z" />
<glyph unicode="&#x2018;" d="M488 1020v163q0 49 13 103t37 106t57.5 98.5t74.5 82.5l118 -78q-43 -68 -67 -143t-24 -167v-165h-209z" />
<glyph unicode="&#x2019;" d="M460 1086q43 69 67 143.5t24 167.5v163h209v-162q0 -50 -13 -103.5t-37 -105t-58 -98.5t-75 -83z" />
<glyph unicode="&#x201a;" d="M450 -242q43 69 66 143.5t23 166.5v179h217l-1 -177q0 -49 -13 -102.5t-37 -105.5t-57.5 -98.5t-74.5 -82.5z" />
<glyph unicode="&#x201c;" d="M324 1020v163q0 49 13 103t37 106t57.5 98.5t74.5 82.5l118 -78q-43 -68 -67 -143t-24 -167v-165h-209zM659 1020v163q0 49 13 103t37 106t57.5 98.5t74.5 82.5l118 -78q-43 -68 -67 -143t-24 -167v-165h-209z" />
<glyph unicode="&#x201d;" d="M293 1086q43 69 67 143.5t24 167.5v163h209v-162q0 -50 -13 -103.5t-37 -105t-58 -98.5t-75 -83zM641 1086q43 69 67 143.5t24 167.5v163h209v-162q0 -50 -13 -103.5t-37 -105t-58 -98.5t-75 -83z" />
<glyph unicode="&#x201e;" d="M307 -244q43 69 66 143.5t23 166.5v163h217l-1 -161q0 -49 -12.5 -102.5t-36 -105.5t-56.5 -98.5t-74 -82.5zM618 -244q42 69 67 143.5t25 166.5v163h216v-161q0 -49 -13 -102.5t-37 -105.5t-57.5 -98.5t-74.5 -82.5z" />
<glyph unicode="&#x2022;" d="M405 731v59q0 47 15.5 86.5t44 68t69 44.5t91.5 16q52 0 93 -16t69.5 -44.5t44 -68t15.5 -86.5v-59q0 -47 -15.5 -85.5t-44 -67t-69.5 -44t-92 -15.5t-92 15.5t-69.5 44t-44 67t-15.5 85.5z" />
<glyph unicode="&#x2026;" d="M184 143q0 35 11.5 66t33.5 53.5t54.5 35.5t74.5 13t74.5 -13t55 -35.5t34 -53.5t11.5 -66t-11.5 -64.5t-34 -51.5t-55 -34.5t-74.5 -12.5t-74.5 12.5t-54.5 34.5t-33.5 51.5t-11.5 64.5zM579 143q0 35 11.5 66t33.5 53.5t54.5 35.5t74.5 13t74.5 -13t55 -35.5t34 -53.5 t11.5 -66t-11.5 -64.5t-34 -51.5t-55 -34.5t-74.5 -12.5t-74.5 12.5t-54.5 34.5t-33.5 51.5t-11.5 64.5zM967 143q0 35 11.5 66t33.5 53.5t54.5 35.5t74.5 13t74.5 -13t55 -35.5t34 -53.5t11.5 -66t-11.5 -64.5t-34 -51.5t-55 -34.5t-74.5 -12.5t-74.5 12.5t-54.5 34.5 t-33.5 51.5t-11.5 64.5z" />
<glyph unicode="&#x202f;" horiz-adv-x="386" />
<glyph unicode="&#x2039;" d="M392 529v19l288 390h166l-248 -400l248 -399h-166z" />
<glyph unicode="&#x203a;" d="M388 139l248 399l-248 400h166l289 -390v-19l-289 -390h-166z" />
<glyph unicode="&#x205f;" horiz-adv-x="483" />
<glyph unicode="&#x20ac;" d="M125 530v138h173v129h-173v138h174q7 134 50.5 235.5t116.5 169.5t173 102t219 34q63 0 121.5 -8.5t118.5 -22.5l-26 -196q-48 15 -101 24.5t-107 9.5q-72 0 -129.5 -21t-99 -63.5t-66 -108t-29.5 -155.5h360v-138h-361v-129h361v-138h-361q3 -95 27 -162.5t66 -111 t100.5 -64t130.5 -20.5q113 0 209 33l26 -195q-57 -14 -119.5 -22t-127.5 -8q-119 0 -219 34.5t-173 103.5t-115 172t-46 240h-173z" />
<glyph unicode="&#x2122;" d="M109 1362v94h394v-94h-138v-444h-116v444h-140zM578 916v540h135l130 -383l134 383h131v-540h-109v374l-126 -374h-61l-125 374v-374h-109z" />
<glyph unicode="&#x25fc;" horiz-adv-x="1080" d="M0 0v1080h1080v-1080h-1080z" />
</font>
</defs>
</svg>
