<?xml version="1.0" standalone="no"?>
<!DOCTYPE svg PUBLIC "-//W3C//DTD SVG 1.1//EN" "http://www.w3.org/Graphics/SVG/1.1/DTD/svg11.dtd" >
<svg xmlns="http://www.w3.org/2000/svg">
<metadata></metadata>
<defs>
<font id="roboto_monothin_italic" horiz-adv-x="1202" >
<font-face units-per-em="2048" ascent="1536" descent="-512" />
<missing-glyph horiz-adv-x="500" />
<glyph horiz-adv-x="0" />
<glyph unicode="&#xd;" />
<glyph horiz-adv-x="0" />
<glyph horiz-adv-x="0" />
<glyph />
<glyph unicode="&#x9;" />
<glyph unicode=" " />
<glyph unicode="!" d="M431 51q1 10 7.5 19.5t15 17t19 12.5t20.5 5q22 0 37.5 -18t12.5 -40q-2 -10 -8 -19.5t-15 -17t-20 -12t-21 -4.5q-22 1 -37 18t-11 39zM513 401l181 1055h55l-181 -1055h-55z" />
<glyph unicode="&#x22;" d="M518 1122l49 273l20 141h60l-24 -148l-52 -266h-53zM760 1122l50 273l20 141h59l-25 -148l-51 -266h-53z" />
<glyph unicode="#" d="M27 410l7 52h272l183 524h-289l8 54h300l145 415h57l-145 -415h350l146 415h57l-144 -415h244l-7 -54h-256l-184 -524h274l-7 -52h-285l-144 -410h-56l142 410h-349l-143 -410h-57l142 410h-261zM364 462h348l185 524h-350z" />
<glyph unicode="$" d="M156 409h55q-9 -83 10 -152.5t62.5 -119.5t109.5 -78t151 -27q69 1 135 23.5t121 63.5t93 98t51 127q14 76 -8 132.5t-66 98.5t-103 72.5t-119 54.5q-70 28 -136 62.5t-114.5 82.5t-72.5 112t-11 151q12 81 50.5 146t95.5 111.5t129 74.5t150 34l31 187h56l-31 -187 q88 -8 150 -45.5t98.5 -95t50 -132t6.5 -156.5h-54q8 73 -4.5 140.5t-47 120t-92 84.5t-138.5 32q-70 0 -135.5 -22.5t-119.5 -63.5t-91 -98.5t-50 -127.5q-10 -52 -3 -94t26.5 -76.5t49 -62t65.5 -50t76.5 -41t81.5 -34.5q70 -27 135.5 -62t114 -83.5t73 -113t12.5 -149.5 q-12 -81 -50.5 -145t-95 -110.5t-127.5 -74t-148 -35.5l-31 -189h-56l31 187q-94 5 -165.5 38t-119 89.5t-68.5 133t-13 169.5z" />
<glyph unicode="%" d="M128 997q-6 53 1 102l12 77q10 52 33 105t58.5 96.5t83.5 71.5t107 28q60 0 98.5 -29t60 -73t27.5 -97.5t-1 -101.5l-13 -77q-9 -51 -32 -104t-58 -96.5t-82.5 -71t-105.5 -27.5q-60 0 -99.5 28.5t-61.5 72t-28 96.5zM179 1018.5q2 -42.5 16.5 -79t44 -60.5t77.5 -24 t85.5 23t65.5 58.5t46 78.5t26 84l15 77q6 37 4 80t-16 79.5t-43 61.5t-77 25t-86 -23t-66.5 -59t-46.5 -79.5t-27 -84.5l-14 -77q-6 -38 -4 -80.5zM188 164l799 1135l40 -32l-799 -1135zM624.5 177q-6.5 53 0.5 102l13 78q10 51 33 104.5t58 96.5t82.5 71t106.5 28 q60 0 99 -28.5t61 -72.5t28 -97t-1 -102l-12 -78q-10 -51 -33 -104.5t-58.5 -96.5t-83 -71t-106.5 -28t-98.5 28.5t-61 72.5t-28 97zM675 198.5q2 -42.5 16.5 -79t43.5 -61t77 -24.5t86 23t66 58.5t46 79t27 84.5l14 78q6 38 4.5 81t-16 79t-43.5 60.5t-78 24.5 q-48 0 -86 -22.5t-66 -58t-45.5 -79t-26.5 -85.5l-15 -78q-6 -38 -4 -80.5z" />
<glyph unicode="&#x26;" d="M120 352q9 64 38 122t69.5 109t89 96t97.5 83l55 41q-23 42 -43.5 85.5t-34 89t-18.5 93t3 96.5q9 61 36 117t69 99t97 68.5t120 25.5q55 0 98.5 -21.5t72 -58t41 -84.5t4.5 -100q-7 -47 -29 -88.5t-52 -78t-66 -68.5t-71 -60l-160 -124l338 -531q63 83 103.5 175.5 t62.5 193.5h54q-19 -117 -65 -221.5t-121 -195.5l140 -215h-62l-112 174q-43 -38 -90.5 -73t-99 -62t-107 -43t-115.5 -16q-80 0 -148 27t-115.5 76.5t-69 117.5t-9.5 151zM174 352q-12 -70 6 -128.5t58 -100.5t97.5 -65.5t125.5 -23.5q57 0 109 14t99.5 39t90.5 59t82 74 l-323 505l-23 37l-51 -39q-44 -35 -88.5 -75.5t-82 -87t-64.5 -98.5t-36 -110zM426 1081.5q3 -43.5 14.5 -85.5t29 -82t38.5 -78l162 124q31 24 61.5 51.5t56 59t44 67t26.5 75.5q7 40 -1 78t-29 67t-53.5 46.5t-75.5 18.5q-53 0 -98.5 -21t-80 -56.5t-57.5 -81.5t-32 -95 q-8 -44 -5 -87.5z" />
<glyph unicode="'" d="M603 1122l48 248l25 166h55l-26 -174l-52 -240h-50z" />
<glyph unicode="(" d="M362.5 198.5q-2.5 95.5 5 189t20.5 178.5l3 20q15 95 39 194t58 196.5t79 191t102.5 177t128 154.5t156.5 124l14 -45q-119 -80 -207 -193.5t-150.5 -245t-102.5 -273t-62 -276.5l-4 -26q-12 -79 -20 -168t-7 -180.5t13 -182.5t39.5 -175t73.5 -157t114 -129l-24 -41 q-74 58 -124.5 134t-81.5 162.5t-45.5 181t-17 190z" />
<glyph unicode=")" d="M193 -425q118 80 206.5 193.5t151 245.5t102.5 273.5t62 276.5l4 26q12 79 20 167.5t7 180t-13 182.5t-39.5 175t-73.5 157t-114 129l24 41q73 -58 123 -134t81 -163t46 -182t17.5 -190.5t-5 -189t-19.5 -177.5l-3 -20q-23 -143 -65 -293t-109.5 -288.5t-163 -256.5 t-225.5 -198z" />
<glyph unicode="*" d="M286 1142l25 52l363 -133l64 395h59l-69 -393l391 141l16 -54l-404 -138l225 -317l-51 -31l-216 321l-301 -323l-45 33l307 324z" />
<glyph unicode="+" d="M124 649l8 53h448l87 504h55l-86 -504h465l-7 -53h-467l-87 -503h-55l87 503h-448z" />
<glyph unicode="," d="M260 -221q48 55 81.5 114.5t47.5 131.5l23 134h54l-22 -132q-30 -163 -150 -282z" />
<glyph unicode="-" horiz-adv-x="1203" d="M240 639l7 54h698l-7 -54h-698z" />
<glyph unicode="." d="M476 54q1 10 7.5 20.5t15.5 19t20 13.5t22 5q12 0 22 -5.5t17 -14.5t10.5 -20t1.5 -22q-4 -21 -24.5 -38.5t-42.5 -17.5q-23 1 -38 19.5t-11 40.5z" />
<glyph unicode="/" d="M171 -124l862 1579h60l-862 -1579h-60z" />
<glyph unicode="0" d="M152.5 460q2.5 70 12.5 134l46 268q12 69 34 141.5t54.5 140.5t75.5 129t98.5 106t123 71.5t149.5 26.5t142 -28t100 -75t63 -109t32.5 -130.5t7 -138.5t-12.5 -134l-47 -268q-12 -69 -33.5 -141.5t-54 -141t-75.5 -128.5t-98 -105.5t-123 -71.5t-149 -26 q-82 0 -141.5 28t-100 74.5t-63.5 108.5t-33 130.5t-7.5 138.5zM202 384l832 731q-6 63 -26 119t-55.5 98t-86.5 66.5t-120 24.5q-73 0 -134 -24.5t-110.5 -66t-88.5 -97t-67.5 -118t-48.5 -128t-31 -127.5l-46 -266q-10 -53 -14 -105.5t-4 -106.5zM211 328q8 -61 29 -114.5 t56 -93.5t85.5 -63t116.5 -23q73 0 134 24.5t110.5 66.5t88 98t67.5 118t48.5 127.5t30.5 127.5l47 266q8 49 12 97.5t6 98.5z" />
<glyph unicode="1" d="M326 1188l8 59l482 208l21 1l-250 -1456h-54l239 1383z" />
<glyph unicode="2" d="M51 0l6 54l546 550q50 50 103.5 104t100 113.5t81.5 125t47 138.5t-3.5 135t-54 107t-97 70t-132.5 25q-81 -1 -149.5 -32t-122 -82.5t-90.5 -119.5t-54 -143l-54 1q17 85 58.5 162.5t102 137t139 94.5t170.5 36q85 0 154 -29t115 -81.5t66 -124t7 -156.5 q-13 -83 -52 -156.5t-91.5 -139.5t-113 -126.5l-116.5 -116.5l-486 -492h772l-6 -54h-846z" />
<glyph unicode="3" d="M62 405h54q-9 -80 11.5 -148t65.5 -117.5t110.5 -77.5t146.5 -28q79 0 151 25t129.5 70.5t97.5 109.5t55 143q16 87 -8 149t-74.5 102t-120.5 59.5t-146 21.5h-112l8 56h105q72 2 144 23t132.5 60.5t104 97.5t58.5 134q14 72 -1 134t-53 107t-96.5 70.5t-131.5 25.5 q-79 0 -148.5 -26.5t-125.5 -73t-96 -110t-59 -137.5h-54q19 85 63 158.5t107.5 127.5t142.5 84.5t169 30.5q84 0 152.5 -30.5t114.5 -83.5t65 -125t5 -156q-11 -66 -42 -120t-76 -96t-100.5 -72.5t-116.5 -49.5q64 -18 114 -51t83 -78t46 -102.5t2 -125.5 q-14 -89 -58.5 -163.5t-110 -128.5t-147.5 -84t-171 -30q-93 0 -168.5 32t-127.5 88.5t-77 134.5t-16 170z" />
<glyph unicode="4" d="M56 398l4 29l850 1028l65 1l-172 -1005h243l-7 -54h-245l-69 -397h-54l68 397zM149 451h599l163 932l-103 -133z" />
<glyph unicode="5" d="M187 383h54q-3 -74 14 -137.5t54.5 -110.5t95.5 -74t136 -27q91 0 163 36.5t125 96t87 136.5t48 159q13 76 1.5 148t-47.5 127.5t-97 89.5t-145 35q-94 1 -177 -30t-158 -85l-40 16l185 693h690l-8 -53h-641l-163 -584q69 47 148 72t163 25q95 0 166 -38t115 -100.5 t60.5 -144t2.5 -169.5q-15 -93 -53 -180t-98 -154.5t-142 -108.5t-184 -41q-89 0 -156.5 31.5t-112.5 86t-67 128t-19 157.5z" />
<glyph unicode="6" d="M136 492l26 168q17 104 51 204.5t84.5 191t117.5 167t150 132t182 87.5t213 34h21l-7 -54h-17q-101 -2 -188 -29t-160.5 -74t-133.5 -111t-108 -140t-83.5 -162t-59.5 -175q38 51 86 92.5t103.5 71t116.5 46t125 16.5q98 0 168.5 -42t112.5 -109.5t56.5 -153t1.5 -172.5 q-9 -59 -29 -119t-50.5 -115.5t-71.5 -103.5t-90.5 -84t-107.5 -57t-124 -21q-106 -1 -184.5 43t-127.5 116.5t-67.5 164.5t-5.5 188zM190 493q-12 -84 2 -167t55 -148.5t109 -105.5t164 -39q87 1 158.5 42t125.5 105t88.5 143t47.5 157q13 77 2 152.5t-47 135.5t-97 97.5 t-149 37.5q-64 0 -133.5 -21t-131 -59t-108.5 -91.5t-66 -117.5z" />
<glyph unicode="7" d="M259 1402l7 54h903l-4 -34l-842 -1422h-56l832 1402h-840z" />
<glyph unicode="8" d="M133 379q12 72 45.5 131t83 105t111 78.5t128.5 52.5q-54 21 -96.5 54.5t-70 77.5t-38 96.5t-1.5 111.5q13 86 56 157.5t106.5 123.5t142.5 80.5t165 28.5q83 0 153.5 -29t119 -81t70.5 -123.5t8 -156.5q-11 -65 -41.5 -119.5t-74 -97t-98 -74t-114.5 -51.5 q61 -20 110.5 -55t83 -81.5t48 -104.5t4.5 -124q-15 -93 -63.5 -167t-118.5 -125.5t-156 -79t-176 -27.5q-87 0 -164 27.5t-132 79.5t-80.5 125.5t-10.5 166.5zM186 374q-15 -80 7 -143.5t70 -107t115 -66.5t141 -23q78 0 153.5 23t138.5 66.5t107.5 107t59.5 143.5 q15 79 -8 142.5t-70.5 108.5t-114 69t-139.5 24q-77 0 -153 -24t-139 -69t-108 -108.5t-60 -142.5zM350 1091q-14 -72 5 -130.5t60.5 -100.5t101.5 -65t128 -23q71 0 140 22.5t126 64.5t97 101t54 131q13 71 -5.5 131.5t-60.5 105t-101.5 69.5t-128.5 25q-73 0 -142 -24.5 t-125.5 -68t-96 -104.5t-52.5 -134z" />
<glyph unicode="9" d="M212 958q9 61 30.5 123.5t53.5 119.5t74.5 107t94.5 87t112 58.5t128 22.5q80 1 141 -22.5t105 -65t71 -97.5t41 -120t14.5 -133t-8.5 -135l-25 -163q-25 -152 -85 -288.5t-155 -240.5t-224.5 -166.5t-294.5 -64.5h-35l8 54h30q100 2 185.5 28t157 71.5t129 108.5 t102 138t76 160.5t50.5 176.5l4 18q-36 -58 -83.5 -107t-104 -85t-121 -55.5t-134.5 -19.5q-97 1 -166.5 45.5t-111.5 115t-56.5 157.5t-2.5 172zM264.5 808q10.5 -77 45 -140.5t93.5 -104t145 -41.5q69 0 141 24.5t135.5 68t111.5 102t69 126.5l9 59q9 57 10 118t-9 119 t-32 110t-59 90.5t-90 61t-125 21.5q-90 -1 -165.5 -43.5t-132.5 -109t-94.5 -148.5t-50.5 -163q-12 -73 -1.5 -150z" />
<glyph unicode=":" d="M532 54q1 10 7.5 20.5t15.5 19t20 13.5t22 5q12 0 22 -5.5t17 -14.5t10.5 -20t1.5 -22q-4 -21 -24.5 -38.5t-42.5 -17.5q-23 1 -38 19.5t-11 40.5zM684 930q1 10 7.5 20.5t15.5 19t20 13.5t22 5q12 0 22 -5.5t17 -14.5t10.5 -20t1.5 -22q-4 -21 -24.5 -38.5t-42.5 -17.5 q-23 1 -38 19.5t-11 40.5z" />
<glyph unicode=";" d="M409 -221q48 55 81.5 114.5t47.5 131.5l23 134h54l-22 -132q-30 -163 -150 -282zM685 930q1 10 7.5 20.5t15.5 19t20 13.5t22 5q12 0 22 -5.5t17 -14.5t10.5 -20t1.5 -22q-4 -21 -24.5 -38.5t-42.5 -17.5q-23 1 -38 19.5t-11 40.5z" />
<glyph unicode="&#x3c;" d="M165 641l7 50l906 377l-8 -57l-829 -347l709 -343l-9 -59z" />
<glyph unicode="=" d="M142 436l7 54h866l-7 -54h-866zM212 843l8 54h865l-7 -54h-866z" />
<glyph unicode="&#x3e;" d="M125 266l10 58l821 346l-701 343l7 59l776 -378l-7 -50z" />
<glyph unicode="?" d="M331 1117q19 76 58.5 141.5t95.5 114t126.5 76t151.5 27.5q78 0 138 -29.5t98.5 -79.5t54 -116.5t3.5 -140.5q-11 -67 -38.5 -125t-67.5 -108.5t-88.5 -94.5t-99.5 -84q-76 -58 -123.5 -131t-67.5 -167l-55 1q25 107 79 188.5t139 150.5q46 37 89.5 77.5t79.5 85.5 t62 96.5t37 112.5q11 63 0 119.5t-41.5 99t-80.5 67.5t-117 25q-71 0 -132 -23t-109.5 -64t-83.5 -97t-53 -122h-55zM432 51q1 10 7.5 20t15.5 17.5t19.5 12t20.5 4.5q22 -1 37.5 -18.5t12.5 -39.5q-2 -10 -8 -19.5t-15 -17t-20 -12t-21 -4.5q-22 1 -37.5 18t-11.5 39z" />
<glyph unicode="@" d="M44.5 503q3.5 86 21.5 174q18 94 51.5 189t81 183.5t110.5 165t140.5 133.5t169.5 89.5t200 32.5q101 0 170 -31.5t112.5 -85t65 -124.5t26 -149.5t-3.5 -160.5t-23 -157q-8 -40 -20.5 -91.5t-31 -105.5t-43.5 -105.5t-58.5 -92t-76 -65t-95.5 -23.5q-44 0 -70 20 t-39.5 50.5t-16 67t0.5 71.5q-21 -33 -47 -69.5t-57.5 -67.5t-69 -51.5t-80.5 -20.5q-48 0 -77.5 22.5t-45 59t-19 82.5t-0.5 92t11 88.5t15 71.5q12 48 30.5 102t44 107t59 101.5t75 84.5t91.5 57t110 20q26 -1 48 -8.5t41 -19.5t36 -28t35 -34l-2 -2l-136 -503 q-4 -18 -9 -42t-7 -50.5t-0.5 -52t10 -46t25.5 -33.5t46 -13q44 -1 79 21.5t62.5 59.5t48 83.5t36 94.5t25.5 92t17 76q13 65 21.5 138.5t6 146t-19.5 138.5t-54.5 117t-98 81t-150.5 30q-97 0 -181 -31.5t-155.5 -85.5t-129.5 -126t-103.5 -154t-77 -169t-49.5 -170 q-17 -79 -21 -157t7 -148.5t39.5 -131.5t77 -105.5t119 -69.5t166.5 -24q74 1 145.5 24t136.5 56l16 -48q-66 -40 -144.5 -63t-156.5 -24q-105 -1 -183.5 25.5t-133 74t-87 113t-46.5 142t-10.5 162.5zM367 485q-1 -41 7 -74.5t28.5 -55t57.5 -22.5q32 -1 62.5 14t58.5 40 t52 57t44.5 65.5t36 65.5t26.5 58l121 420q-23 26 -47.5 41.5t-60.5 17.5q-52 1 -95 -17.5t-78.5 -51.5t-64 -76t-50.5 -90t-38 -94t-27 -88q-5 -21 -13 -55.5t-13.5 -74t-6.5 -80.5z" />
<glyph unicode="A" d="M14 0l713 1456h61l213 -1456h-54l-64 435h-598l-214 -435h-57zM310 489h566l-127 890z" />
<glyph unicode="B" d="M106 0l252 1456h347q82 -2 157.5 -26t129.5 -71t81 -116q17 -44 17 -98q0 -30 -5 -62q-10 -63 -35.5 -113.5t-64.5 -90.5t-88.5 -69t-107.5 -49v-8q61 -16 109 -49t80 -79.5t45 -103.5q8 -34 7 -69q0 -25 -3 -51q-13 -88 -57 -160.5t-109 -125.5t-145.5 -83t-167.5 -32 h-442zM168 54h380q75 2 146 28t128 71t97 107.5t54 138.5q5 29 5 56q0 39 -11 73q-19 58 -60 100t-99.5 65.5t-125.5 25.5h-398zM293 773h313q73 1 143.5 21.5t128 60t98 97.5t55.5 135q6 32 6 60q1 43 -13 78q-22 59 -70 97.5t-113 58t-135 21.5h-304z" />
<glyph unicode="C" d="M131 482q1 72 11 137l37 218q13 71 37 145.5t59.5 145.5t82.5 133.5t105.5 110t129 75.5t152.5 29h5q96 0 167 -38q73 -39 119.5 -103.5t67.5 -148.5q18 -74 18 -152v-22h-52q0 78 -17.5 152t-56 131.5t-100.5 92.5q-60 34 -146 34h-5q-74 -1 -137.5 -26.5t-116.5 -69.5 t-95 -101.5t-74 -122t-54 -132.5t-34 -131l-39 -220q-9 -57 -11 -122q-1 -15 -1 -30q1 -50 7 -100q8 -65 28.5 -124.5t57 -105.5t90.5 -74t129 -29h5q89 0 162 34q75 34 134 91.5t102 132t72 153.5h54q-26 -91 -74 -175t-115 -149t-153 -103q-83 -38 -182 -38h-5 q-83 1 -144.5 30.5t-104 78.5t-68.5 113q-24 65 -36 136q-11 65 -11 132v12z" />
<glyph unicode="D" d="M89 0l253 1456h351q84 -2 151 -30t118 -74.5t85.5 -108.5t53.5 -132q19 -69 22 -145q1 -16 0 -33q0 -59 -8 -116l-30 -178q-14 -77 -43 -154t-71.5 -147.5t-97 -131t-120.5 -105.5t-142 -72t-161 -29h-361zM151 54h299q77 2 146 27t129 66.5t110 97t89 120t65.5 134.5 t40.5 140l32 181q8 54 8 110v23q-2 68 -17.5 132t-45 120.5t-74 99.5t-104.5 69t-136 28h-308z" />
<glyph unicode="E" d="M109 0l252 1456h801l-7 -54h-750l-109 -626h656l-7 -54h-658l-116 -668h748l-7 -54h-803z" />
<glyph unicode="F" d="M119 0l252 1456h803l-8 -54h-752l-110 -630h661l-8 -56h-662l-124 -716h-52z" />
<glyph unicode="G" d="M124 478v12q0 67 10 130l41 238q13 70 38 143.5t62 142t85.5 129t107.5 105.5t129 71.5t151 26.5q90 0 160.5 -32.5t119 -89t74.5 -132.5q24 -72 24 -154v-6h-52q-4 73 -25.5 138.5t-61.5 115t-99 78t-139 28.5q-73 -1 -136.5 -25t-117 -65t-97 -96.5t-77 -117.5 t-56.5 -128.5t-35 -129.5l-42 -240q-10 -61 -11 -128v-11q0 -60 10 -119q11 -65 34.5 -123.5t63 -103.5t96 -72t132.5 -29h12q108 0 207 33q106 35 189 114l75 424h-382l8 55h436l-86 -504q-91 -91 -210 -134q-115 -42 -237 -42h-11q-84 1 -147.5 30t-109.5 77.5t-75 112 t-43 134t-15 144.5z" />
<glyph unicode="H" d="M69 0l251 1456h51l-117 -680h747l117 680h51l-251 -1456h-51l125 722h-747l-125 -722h-51z" />
<glyph unicode="I" d="M102 0l8 54h356l234 1346h-355l8 56h783l-8 -56h-370l-234 -1346h369l-8 -54h-783z" />
<glyph unicode="J" d="M86 401h54q-3 -26 -3 -51q0 -49 11 -94q15 -67 53.5 -116.5t99.5 -77.5q59 -28 137 -28h6q85 1 159.5 35t133 90t98.5 129.5t56 153.5l175 1014h54l-174 -1014q-17 -91 -61.5 -174.5t-109.5 -147t-149 -101.5t-181 -39h-6q-90 0 -159 32q-70 32 -115.5 89t-65.5 134 q-15 57 -15 121q0 22 2 45z" />
<glyph unicode="K" d="M119 0l250 1456h52l-144 -833l247 226l644 606l76 -1l-693 -656l487 -798h-64l-463 763l-246 -213l-95 -550h-51z" />
<glyph unicode="L" d="M130 0l252 1456h55l-242 -1402h745l-7 -54h-803z" />
<glyph unicode="M" d="M77 0l251 1456h77l179 -912l516 912h85l-252 -1456h-54l123 713l117 660l-519 -903h-50l-182 903l-116 -670l-121 -703h-54z" />
<glyph unicode="N" d="M71 0l250 1456h49l512 -1362l234 1362h52l-250 -1456h-49l-513 1365l-234 -1365h-51z" />
<glyph unicode="O" d="M130 482q1 72 11 137l37 218q13 70 37 145t59 146t82 134t105.5 111t128.5 75.5t153 27.5t144.5 -29.5t104 -79t68.5 -113.5q24 -65 36 -136q10 -63 11 -127q-1 -9 -1 -17q-2 -72 -11 -137l-37 -218q-13 -70 -36.5 -145t-59 -146t-82 -134t-104.5 -110.5t-128.5 -75.5 t-152.5 -28q-83 0 -144 29.5t-104 79t-68.5 114t-37.5 135.5q-11 66 -11 132v12zM184 496q-1 -16 -1 -31q0 -50 6 -99q8 -65 28.5 -125t57 -106t90.5 -73.5t130 -27.5q75 0 138.5 25.5t116 69.5t94.5 102t73.5 123t53 133t33.5 132l39 220q9 57 11 123q1 16 1 31q0 51 -6 99 q-8 64 -28.5 124t-57 105.5t-91 73t-129.5 27.5q-74 0 -137.5 -25.5t-116 -69.5t-94.5 -102t-74 -122.5t-53.5 -132.5t-33.5 -131l-39 -220q-9 -57 -11 -123z" />
<glyph unicode="P" d="M131 0l252 1456h426q90 -2 162.5 -35.5t120.5 -90t68 -133.5q12 -44 12 -93q0 -35 -6 -73q-15 -91 -59.5 -166.5t-110.5 -130.5t-149 -86t-174 -33h-382l-106 -615h-54zM300 669h373q79 2 151.5 29t131.5 74t100 112.5t56 144.5q7 37 7 72q-1 38 -9 73q-16 67 -56.5 117 t-103 79.5t-140.5 31.5h-382z" />
<glyph unicode="Q" d="M108 477v12q0 68 10 130l38 218q13 73 39 149t63.5 147t87 133.5t111 109t134 73.5t156.5 27t148 -28.5t110 -76.5t75.5 -112t43.5 -135t15 -145v-12q0 -68 -10 -130l-37 -218q-16 -87 -47 -173t-78 -162.5t-110 -141t-142 -108.5l194 -264l-40 -33l-205 272 q-40 -13 -81 -21t-83 -8q-84 0 -148 28.5t-110 77t-75.5 112t-43.5 134.5t-15 145zM161 492v-12q0 -60 10 -120q11 -65 35 -124t63.5 -104t96.5 -71.5t134 -26.5q76 0 142.5 25t122 68t100 100.5t79 122.5t57.5 134t36 135l39 220q10 61 11 127v12q0 60 -10 120 q-11 64 -35 123t-63.5 103.5t-96.5 71t-134 26.5q-76 0 -142 -25t-121.5 -67.5t-100.5 -100t-79 -122t-58 -133.5t-36 -135l-39 -220q-10 -61 -11 -127z" />
<glyph unicode="R" d="M117 0l251 1456h379q87 -2 159.5 -35t121.5 -89q48 -56 70 -132q13 -44 13 -94q0 -34 -6 -70q-12 -75 -45 -136t-81 -110.5t-108.5 -87t-127.5 -64.5l238 -624l-1 -14h-54l-234 623h-416l-108 -623h-51zM285 677h370q73 3 139 33t118.5 78.5t88.5 112.5t50 135q6 35 6 67 q0 40 -9 76q-17 66 -58.5 114.5t-104 77.5t-138.5 31h-336z" />
<glyph unicode="S" d="M118 391h52v-17q0 -74 23 -134q26 -66 74.5 -112t117 -70t150.5 -24q74 0 146.5 20t132.5 59.5t102.5 98.5t56.5 137q5 28 5 53q0 24 -4 46q-8 44 -31.5 80.5t-57 65t-73.5 51t-84 40.5t-87 33q-71 24 -142 57t-125 80t-84 112q-20 45 -21 101q0 25 4 52q13 85 60 151 t113.5 112t147 69.5t160.5 23.5q90 0 161.5 -31.5t120.5 -86t73 -129.5q19 -58 18 -124q0 -19 -1 -39h-53v19q0 65 -17 121q-20 64 -61 112t-101.5 76t-138.5 28q-69 0 -139.5 -19t-130 -57t-102.5 -94.5t-56 -129.5q-5 -27 -5 -52q0 -22 4 -43q9 -43 32 -77.5t57 -62 t73.5 -49t82.5 -38.5t84 -30q73 -24 145.5 -58.5t127.5 -84.5t84 -118q20 -47 20 -104q0 -26 -4 -54q-13 -90 -60 -159t-114.5 -116t-150 -71.5t-167.5 -24.5q-93 0 -172.5 28t-136.5 81.5t-87 129.5q-24 61 -23 136q0 18 1 36z" />
<glyph unicode="T" d="M248 1402l8 54h982l-8 -54h-465l-242 -1402h-54l244 1402h-465z" />
<glyph unicode="U" d="M148 469l171 987h51l-170 -987q-6 -40 -7 -81q0 -37 6 -74q11 -78 47 -140t98 -101t151 -39t165 37.5t134.5 98.5t97.5 139.5t55 159.5l172 987h52l-169 -987q-17 -93 -60.5 -181.5t-108.5 -156.5t-150.5 -109.5t-187.5 -41.5q-101 0 -172.5 43t-114.5 113 q-44 68 -59 156q-8 45 -8 91q0 43 7 86z" />
<glyph unicode="V" d="M235 1457l55 -1l209 -1314l8 -75l34 79l617 1309h58l-685 -1455h-61z" />
<glyph unicode="W" d="M227 0v1456h49l2 -1131l-3 -173l58 182l392 1119v3h51l-2 -3l43 -1128l-2 -175l57 180l352 1125h49l-452 -1455h-49v3l-40 1216l-2 96l-35 -105l-419 -1207l1 -3h-50z" />
<glyph unicode="X" d="M30 0l575 747l-332 710h62l306 -671l515 669h67l-554 -716l344 -739h-61l-320 700l-538 -700h-64z" />
<glyph unicode="Y" d="M235 1457h64l278 -853l581 851h64l-625 -906l-94 -549h-52l95 558z" />
<glyph unicode="Z" d="M47 0l5 44l986 1359h-740l7 53h812l-4 -38l-990 -1364h802l-7 -54h-871z" />
<glyph unicode="[" d="M320 -312l309 1976h288l-7 -54h-234l-292 -1868h233l-7 -54h-290z" />
<glyph unicode="\" d="M421 1457h56l318 -1583h-56z" />
<glyph unicode="]" d="M299 -312l7 54h233l291 1868h-231l7 54h289l-309 -1976h-287z" />
<glyph unicode="^" d="M262 660l455 796h51l185 -798h-59l-160 722l-412 -720h-60z" />
<glyph unicode="_" d="M73 -54l7 54h822l-7 -54h-822z" />
<glyph unicode="`" d="M619 1517h62l137 -268h-55z" />
<glyph unicode="a" d="M121 274q10 65 39.5 114.5t73 86t97 61t111.5 39.5t118 21.5t116 7.5h263l28 158q4 25 4 48q1 40 -11 74q-18 53 -56 89.5t-93.5 55.5t-120.5 19t-127.5 -17t-116 -50.5t-93.5 -82.5t-59 -113l-54 2q19 75 63.5 133.5t105.5 98.5t133 61.5t147 21.5q76 0 141.5 -23 t111.5 -67t68 -108q14 -42 14 -92q0 -25 -4 -52l-94 -542q-8 -50 -8 -98v-6q0 -52 1 -105l-1 -9h-62q-1 15 -1 30q0 38 4 72q5 50 15 100q-43 -52 -95.5 -93.5t-112 -70t-124.5 -44.5q-61 -15 -125 -14h-8q-63 1 -120 21.5t-97 58.5q-42 38 -62 92q-13 35 -13 76q0 22 4 46z M174 270q-4 -20 -4 -39q0 -31 11 -59q17 -44 50.5 -74.5t80 -47t96.5 -17.5h14q66 1 128 17q68 18 128.5 52.5t112.5 83t93 107.5l46 256h-251q-48 0 -101 -5.5t-106 -17.5t-102 -32t-89.5 -51t-68.5 -73.5t-38 -99.5z" />
<glyph unicode="b" d="M114 0l264 1536h54l-114 -638q33 43 74 80t88.5 64.5t99.5 43.5t108 16q76 0 132 -24t95.5 -64.5t63.5 -95t35 -116.5q10 -56 10 -114v-11q-1 -64 -10 -125l-3 -21q-12 -64 -33 -130t-52.5 -127t-73 -114.5t-94 -93.5t-115.5 -63t-137 -23q-48 0 -94 12t-86.5 35 t-73.5 56.5t-55 76.5l-30 -160h-53zM210 261q11 -53 39 -95.5t67 -71.5t88 -44.5t102 -15.5q67 0 123 21.5t102 57.5t83 84t64.5 103t46 114t29.5 117l4 21q9 52 11 109v25q0 44 -5 87q-7 55 -25.5 105t-51 87.5t-81.5 60t-116 22.5q-57 0 -117 -20.5t-113.5 -56t-95 -83.5 t-60.5 -103z" />
<glyph unicode="c" d="M150 392v17q0 56 9 111l7 42q18 99 61 195.5t109 173t155 124t200 47.5q83 0 148 -29t109.5 -79.5t65.5 -119.5q18 -58 18 -124q0 -13 -1 -25h-53q1 13 1 26q0 54 -14 102q-17 59 -54 102.5t-92.5 68t-126.5 24.5q-67 0 -124.5 -19.5t-106 -54t-88 -81t-69.5 -100.5 t-51 -113t-32 -118l-8 -42q-9 -54 -9 -112q0 -3 -1 -6q1 -55 11 -106q10 -54 32 -101.5t58 -83t86.5 -56.5t117.5 -21q71 0 134 21t114.5 59.5t90 92.5t60.5 120h54q-22 -77 -65 -141t-102 -109.5t-131.5 -71t-153.5 -25.5q-74 0 -131.5 22.5t-100 61.5t-69.5 91.5 t-41.5 112.5t-16.5 124z" />
<glyph unicode="d" d="M148 407q0 64 10 124l4 21q11 65 32.5 131t53 127t73 114.5t94 93t115.5 62t138 22.5q51 0 97.5 -15t85.5 -42t69.5 -65t50.5 -84l112 640h54l-264 -1536h-54l31 162q-34 -40 -75.5 -73.5t-89 -57.5t-98.5 -37.5t-105 -13.5q-75 0 -130.5 24t-94.5 65.5t-63 96t-35 116.5 q-11 59 -11 119v6zM202 422q-1 -14 -1 -28q1 -42 7 -84q8 -55 25.5 -104.5t50 -87.5t81 -60.5t115.5 -23.5q58 0 113.5 16t105 45.5t91 70t71.5 89.5l95 535q-9 55 -33.5 102.5t-62 82t-86 54t-106.5 19.5q-100 0 -176.5 -45t-132 -116.5t-90.5 -160t-51 -174.5l-4 -21 q-10 -52 -12 -109z" />
<glyph unicode="e" d="M140 388q-2 23 -2 46q0 42 6 84l8 44q12 66 37 131.5t62 125.5t84.5 112t104.5 90t122 59.5t138 21.5q96 0 166 -39.5t114 -104.5q42 -65 58 -148q9 -47 9 -95q0 -37 -5 -75l-10 -63h-821l-3 -15l-9 -44q-8 -44 -7 -89q0 -41 6 -83q14 -86 57 -155.5t113.5 -113 t166.5 -44.5h5q100 0 186 39q88 40 162 109l37 -29q-78 -81 -176.5 -126.5t-212.5 -45.5q-72 0 -132 22t-107 60t-80 89.5t-52 111t-25 125.5zM221 631h762l3 13q8 40 8 79q0 33 -6 67q-12 72 -48.5 129t-97 93t-141.5 36q-90 0 -166 -36t-136.5 -94.5t-105 -133.5 t-72.5 -153z" />
<glyph unicode="f" horiz-adv-x="1203" d="M278 1027l8 55h285l17 95q18 94 59 165t101.5 118.5t139 72t172.5 24.5q92 0 182 -18l-15 -50q-41 8 -82 11t-83 3q-82 -1 -151 -21t-123 -60.5t-90.5 -101.5t-53.5 -143l-17 -95h430l-7 -55h-432l-174 -1027h-63l180 1027h-283z" />
<glyph unicode="g" d="M88 -252l41 34q48 -74 115.5 -119.5t158.5 -45.5q86 0 156 33t123 88t88.5 127t51.5 150l29 145q-34 -40 -75.5 -73t-88.5 -57t-98.5 -37t-104.5 -13q-75 0 -130.5 24t-94.5 65.5t-63 96t-35 116.5q-11 58 -11 119v6q1 64 10 124l4 21q11 65 32.5 131t53 127t73 114.5 t94 93t115.5 62t138 22.5q51 0 97 -14.5t85 -41.5t69.5 -65t50.5 -84l34 185h55l-184 -1067q-17 -89 -56.5 -170.5t-99.5 -143.5t-139.5 -99.5t-175.5 -37.5q-103 0 -183 49.5t-135 134.5zM204 422v-25q0 -44 5 -87q7 -55 25.5 -104.5t51 -87.5t81 -60.5t115.5 -23.5 q59 0 115 16.5t105.5 47t90.5 72.5t70 92l93 521q-8 56 -32 104.5t-60.5 84t-85.5 56t-108 20.5q-100 0 -177 -45t-132.5 -116.5t-90.5 -160t-51 -174.5l-4 -21q-9 -52 -11 -109z" />
<glyph unicode="h" d="M103 0l265 1536h54l-127 -715q36 58 82.5 109t102 89t119.5 60.5t135 22.5q89 0 149.5 -33t94.5 -89q34 -55 44 -128q4 -32 4 -66q0 -42 -6 -86l-120 -700h-55l121 700q7 45 7 88q1 22 -1 42q-6 64 -33 112t-77 78q-49 29 -125 29h-5q-71 -1 -142.5 -29.5t-134 -76.5 t-109 -110.5t-67.5 -130.5l-121 -702h-55z" />
<glyph unicode="i" d="M128 0l8 54h385l170 974h-384l7 54h440l-178 -1028h371l-7 -54h-812zM709 1391q4 32 25 52.5t53 20.5q33 0 49 -22q12 -17 12 -38q0 -7 -1 -15q-5 -31 -27 -51q-20 -20 -50 -19h-3q-31 1 -47 21q-12 15 -12 37q0 6 1 14z" />
<glyph unicode="j" d="M-3 -420l11 47q46 -6 92 -9q34 -2 70 -2h23q86 1 154 32.5t119 84.5t84 123t48 150l177 1022h-406l7 54h463l-187 -1076q-16 -89 -53 -168.5t-94.5 -140t-134.5 -97t-173 -37.5h-17q-42 0 -84 4q-49 5 -99 13zM786 1392q5 32 26.5 52.5t53.5 20.5q34 0 50 -22 q11 -17 11 -38q0 -7 -1 -15q-5 -31 -26.5 -50t-53.5 -20q-32 0 -48 20q-13 15 -13 38q0 7 1 14z" />
<glyph unicode="k" d="M146 0l264 1536h55l-177 -1026l150 118l586 454h86l-597 -463l438 -619h-68l-412 585l-5 -3l-189 -138l-77 -444h-54z" />
<glyph unicode="l" d="M128 0l8 54h389l248 1428h-388l8 54h444l-257 -1482h367l-7 -54h-812z" />
<glyph unicode="m" d="M-21 0l187 1082h49l-27 -142q48 73 116.5 117t159.5 45h4q80 0 132 -42t61 -125q51 74 125.5 120t166.5 47q68 0 110 -26t63 -68q22 -44 26 -98q1 -15 0 -30q0 -40 -6 -80l-140 -800h-49l137 800q7 44 7 88.5t-14.5 80.5t-46.5 58q-31 21 -83 21h-5q-53 0 -96.5 -17 t-79 -45.5t-64 -67t-50.5 -82.5q0 -4 -0.5 -8t-0.5 -8l-145 -820h-49l140 820q5 33 5 66v18q-2 42 -17.5 74.5t-47.5 51.5t-85 19q-56 -1 -103.5 -22.5t-85 -57.5t-64.5 -83t-42 -98l-139 -788h-49z" />
<glyph unicode="n" d="M102 0l186 1082h55l-49 -260q36 58 82.5 108.5t102 88.5t119 60.5t134.5 22.5q89 0 149.5 -33t94.5 -89t43 -128q4 -31 4 -64q0 -43 -7 -88l-119 -700h-55l121 700q7 45 7 88q0 22 -2 42q-6 64 -32 112q-28 48 -78 78q-49 29 -123 29h-5q-71 -1 -142.5 -29.5 t-133.5 -76.5t-108.5 -110.5t-67.5 -130.5l-121 -702h-55z" />
<glyph unicode="o" d="M116 391q-1 17 -1 34q0 48 7 95l7 42q19 101 65.5 198t117 173t163 122.5t203.5 46.5q74 0 133 -22t103.5 -60.5t75 -91t46.5 -112.5t20 -125q1 -17 1 -34q0 -48 -7 -95l-7 -42q-18 -101 -64.5 -198t-117 -173t-163 -122.5t-203.5 -46.5q-74 0 -133 22t-103.5 60.5 t-75 91t-47 112.5t-20.5 125zM174 350q12 -86 50 -156.5t105 -115t166 -44.5t181.5 42.5t146 111.5t105.5 156t60 176l8 42q7 46 7 93v21q-2 58 -15.5 111.5t-39 101t-64 83t-90 56t-116.5 20.5q-98 0 -181 -42.5t-146.5 -111.5t-106 -156t-60.5 -176l-8 -42q-8 -46 -7 -93 q0 -38 5 -77z" />
<glyph unicode="p" d="M38 -416l258 1498h54l-35 -180q33 42 74 78.5t88.5 63.5t99.5 42.5t108 15.5q75 0 131.5 -24t95.5 -64.5t63 -95t35 -116.5q10 -56 10 -114v-11q-1 -64 -10 -125l-3 -21q-12 -64 -33 -130t-52.5 -127t-73 -114.5t-94 -93.5t-115.5 -63t-137 -23q-48 0 -94 12t-86.5 34.5 t-74 55.5t-55.5 76l-101 -574h-53zM206 256q12 -53 40 -94t67.5 -69.5t88 -43.5t101.5 -15q66 0 122.5 21.5t102.5 57.5t82.5 84t64.5 103t47 114t30 117l3 21q9 52 11 109v24q0 45 -6 88q-7 55 -25.5 105t-51 87.5t-81.5 60t-116 22.5q-63 0 -120 -20.5t-106.5 -55.5 t-89.5 -82t-69 -100z" />
<glyph unicode="q" d="M150 407q0 64 9 124l4 21q12 65 33 131t52.5 127t73 114.5t94 93t115.5 62t138 22.5q51 0 97 -14t85 -40.5t70 -63.5t52 -82l33 180h54l-258 -1498h-54l102 573q-35 -39 -76.5 -71.5t-88.5 -56t-98 -36.5t-104 -13q-75 0 -130.5 24.5t-94.5 65.5t-63 96t-35 116 q-11 58 -11 119q0 3 1 6zM204 422q-1 -14 -1 -28q0 -43 5 -84q8 -55 26 -104.5t50.5 -87.5t81 -60.5t115.5 -23.5q58 0 113.5 16t105 45.5t91 70t71.5 89.5l95 536q-10 54 -34.5 101t-62 81.5t-86 54.5t-105.5 20q-67 0 -123 -21t-102.5 -57t-83 -84.5t-64.5 -103.5 t-47 -114t-30 -116l-4 -21q-9 -52 -11 -109z" />
<glyph unicode="r" d="M275 0l186 1082h53l-28 -188l-15 -69q44 67 100.5 119t122.5 87t141 53t155 18q35 0 69.5 -5t68.5 -11l-12 -50q-32 5 -63.5 9t-63.5 4q-84 0 -169 -23.5t-158 -69.5t-128.5 -112.5t-80.5 -152.5l-117 -691h-61z" />
<glyph unicode="s" d="M146 275h54q0 -69 29.5 -115.5t77 -74.5t106.5 -39.5t119 -11.5q56 0 119 12.5t119 40t97 71.5t53 107q4 20 4 37q0 22 -6 42q-10 34 -33 61t-56 47.5t-69.5 35.5t-74.5 25.5t-70 18.5q-39 9 -82 20.5t-83.5 27t-76.5 37.5t-61 52q-25 29 -37 69q-7 24 -7 52q0 19 3 39 q10 72 53 124t102.5 85t129 48.5t134.5 15.5q73 0 140.5 -18t118.5 -56t81 -96q27 -53 26 -124v-15h-55q1 11 1 21q0 52 -22 94q-26 48 -70 79.5t-102 46t-117 14.5q-53 0 -112.5 -11.5t-112 -37t-91 -67t-50.5 -101.5q-4 -20 -3 -38q0 -23 5 -41q10 -34 33 -59t56 -43 t70 -31.5t74.5 -22.5t69.5 -17q40 -10 83.5 -22.5t84 -30t76.5 -41.5t60 -56q24 -33 36 -73q7 -24 8 -51q0 -19 -4 -41q-11 -77 -56 -130.5t-108 -88t-136.5 -50t-140.5 -15.5q-71 0 -140.5 15.5t-125 51t-89.5 91.5q-32 53 -32 128v9z" />
<glyph unicode="t" d="M266 1027l7 55h309l51 292h57l-51 -292h378l-8 -55h-379l-134 -768q-4 -24 -4 -45q0 -30 8 -55q13 -42 42.5 -69.5t73.5 -41t98 -14.5h20q30 0 60 2q40 3 80 7l4 -52q-40 -7 -80 -9q-28 -2 -56 -2h-23q-67 1 -122.5 17.5t-93.5 50.5q-37 34 -55 86q-11 33 -12 75 q0 24 4 50l133 768h-307z" />
<glyph unicode="u" d="M171 240q-4 32 -4 65q0 44 7 90l118 687h54l-119 -689q-7 -44 -7 -87q0 -22 2 -44q6 -64 32.5 -114.5t76.5 -81.5t128 -32q69 0 137 20.5t126.5 59.5t102.5 94.5t64 124.5l128 749h56l-186 -1082h-56l38 193q-72 -102 -176.5 -157.5t-231.5 -55.5q-90 0 -151 35t-95.5 93 t-43.5 132z" />
<glyph unicode="v" d="M187 1083h59l265 -1002l578 1000h62l-622 -1081h-54z" />
<glyph unicode="w" d="M157 1082h56l38 -774l3 -203l89 212l318 765h50l56 -774l12 -204l79 214l302 763h58l-427 -1081h-49l-67 818l-3 162l-67 -171l-343 -809h-49z" />
<glyph unicode="x" d="M51 0l518 558l-328 525h69l297 -480l446 478l74 -1l-492 -528l345 -552h-67l-316 507l-473 -507h-73z" />
<glyph unicode="y" d="M-33 -426l5 51l38 -6t39 -3q53 0 99.5 17t85.5 46.5t72 68.5t59 82l106 177l-307 1076h61l285 -1009l18 31l597 976h66l-768 -1261q-31 -51 -68.5 -97.5t-82.5 -81.5t-98.5 -56.5t-117.5 -21.5q-23 0 -44.5 3t-44.5 8z" />
<glyph unicode="z" d="M40 0l7 44l951 983h-763l7 55l845 -1l-8 -47l-950 -980h863l-6 -54h-946z" />
<glyph unicode="{" d="M320 543l2 23l3 20l3 23q126 11 208.5 80.5t106.5 195.5l38 247q15 88 50 161t88.5 131.5t123 101.5t152.5 71l10 -46q-146 -51 -243.5 -158t-125.5 -261l-38 -247q-21 -123 -95.5 -202t-194.5 -108q55 -15 95 -44.5t64 -69.5t32 -90t1 -106l-38 -245q-21 -149 43 -255 t201 -161l-24 -44q-78 28 -134.5 73t-91.5 103.5t-47 130t-1 153.5l39 245q17 127 -42.5 197t-184.5 81z" />
<glyph unicode="|" d="M435 -270l268 1726h54l-268 -1726h-54z" />
<glyph unicode="}" d="M172 -394q72 26 133.5 65.5t110 91t81.5 116t47 141.5l38 245q21 124 95.5 203t195.5 109q-56 15 -96 44t-64 69t-32.5 89.5t-1.5 105.5l39 247q21 147 -39 257t-199 164l21 43q155 -59 224.5 -179t46.5 -285l-39 -247q-18 -126 41.5 -195.5t184.5 -80.5l-3 -23h1l-1 -10 v-10h-1l-2 -23q-127 -10 -209.5 -80.5t-106.5 -197.5l-38 -245q-15 -88 -50 -160.5t-88.5 -130.5t-123 -100.5t-152.5 -69.5z" />
<glyph unicode="~" d="M47 463q12 58 36.5 114t62 99.5t89 70t117.5 27.5q42 0 79 -12t70 -33t63 -48.5t57 -56.5q22 -24 46 -47t51 -41t57.5 -29t65.5 -11q55 1 96.5 23t72 58t50.5 81.5t31 93.5l56 -1q-12 -58 -36.5 -113t-62.5 -98t-89.5 -69.5t-117.5 -27.5q-42 0 -78.5 12.5t-69.5 33.5 t-62.5 48t-56.5 56q-23 24 -47 47t-51 41t-57.5 28.5t-66.5 10.5q-55 -1 -97 -23t-72 -58t-50 -82t-31 -94h-55z" />
<glyph unicode="&#xa0;" />
<glyph unicode="&#xa1;" d="M410 -359l182 1055h54l-181 -1055h-55zM616 1050q4 20 23.5 36.5t40.5 16.5q21 -1 36.5 -18t12.5 -39q-2 -10 -8 -20t-15 -17.5t-20 -12t-21 -4.5q-21 1 -36.5 18.5t-12.5 39.5z" />
<glyph unicode="&#xa2;" d="M155.5 396q-1.5 63 8.5 124l7 42q18 98 60 193.5t107 172t152.5 124.5t196.5 50l37 216h56l-37 -219q72 -8 128.5 -39.5t94.5 -81.5t56 -114.5t14 -138.5h-53q4 69 -13 128t-54 102.5t-92.5 68t-126.5 24.5q-67 0 -124.5 -19.5t-106 -54t-88 -81t-69.5 -100.5t-51 -113 t-32 -118l-8 -42q-9 -55 -9.5 -112.5t10 -111.5t32.5 -101.5t58 -83t86.5 -56.5t117.5 -21q71 0 134 21t114.5 59.5t90 92.5t60.5 120h54q-21 -73 -60.5 -134t-94 -106t-121.5 -72.5t-142 -33.5l-38 -226h-56l38 226q-70 3 -124 27.5t-94 64t-65.5 91t-38.5 110.5t-14.5 122 z" />
<glyph unicode="&#xa3;" d="M51 0l7 54h114q38 21 63 53t41.5 69.5t25.5 78.5t15 81l48 331h-202l7 54h203l45 318q13 81 48 159.5t89.5 140t127 99.5t162.5 38q85 0 145.5 -31.5t98 -85t52 -123.5t5.5 -147h-53q8 66 -2 126t-40 106.5t-80.5 73.5t-124.5 27q-78 -1 -141.5 -34t-111 -87t-78 -122.5 t-42.5 -139.5l-47 -318h358l-7 -54h-358l-47 -331q-12 -79 -37.5 -151t-80.5 -132l736 1l-7 -54h-932z" />
<glyph unicode="&#xa4;" d="M-7 15l182 181q-43 97 -55 202t5 210q20 118 72.5 226t130.5 199l-124 194l41 37l120 -188q37 34 78 63t85.5 50t92.5 33t99 12q94 0 170.5 -41.5t130.5 -117.5l192 190l35 -42l-195 -195q47 -98 59.5 -205.5t-4.5 -214.5q-20 -114 -69 -218t-123 -193l121 -186l-42 -38 l-115 178q-38 -37 -79.5 -68t-87.5 -54t-96 -36t-104 -13q-98 0 -176.5 44.5t-132.5 125.5l-177 -176zM169.5 484.5q0.5 -65.5 13.5 -129.5t38.5 -122t66 -102.5t96 -71t128.5 -26.5q72 0 137.5 25t121.5 67.5t103 99t83 120.5t60 131.5t36 131.5q10 58 10 123t-13 129 t-38.5 122t-66 102t-96.5 70.5t-128 26.5q-73 0 -138 -24.5t-121 -67t-103 -99t-83 -120t-60.5 -131t-35.5 -131.5q-11 -58 -10.5 -123.5z" />
<glyph unicode="&#xa5;" d="M88 326l7 55h435l43 240h-434l8 55h410l-339 781h62l313 -719l13 -51h4l33 51l561 717l67 -1l-605 -778h406l-7 -55h-438l-42 -240h436l-7 -55h-438l-56 -326h-54l55 326h-433z" />
<glyph unicode="&#xa6;" d="M408 -270l129 752h54l-129 -752h-54zM576 698l130 758h54l-130 -758h-54z" />
<glyph unicode="&#xa7;" d="M4 -64l54 2q-10 -87 10.5 -157t66.5 -119.5t114.5 -76t155.5 -26.5q69 0 140.5 17t132.5 53t105 90.5t59 129.5q10 50 1.5 90.5t-30.5 72t-55 55.5t-71.5 42.5t-80 32t-80.5 24.5q-47 13 -99 29.5t-101 39t-91.5 51t-72.5 67t-43 87.5t-2 111q10 62 40 109t73.5 80 t97 54.5t110.5 32.5q-46 23 -82.5 53t-60.5 67.5t-33.5 82.5t-0.5 99q14 87 62.5 152.5t117 108.5t150.5 64.5t163 21.5q97 0 171.5 -32t122.5 -89.5t68.5 -136.5t9.5 -173h-53q9 80 -8.5 148.5t-58.5 119t-104.5 79.5t-146.5 30q-71 1 -142.5 -16t-132.5 -53t-105.5 -91 t-59.5 -130q-15 -77 10.5 -131.5t75 -92t112.5 -62t123 -42.5q46 -14 97 -29.5t99.5 -36.5t91 -48.5t72.5 -64.5t43 -84.5t2 -109.5q-11 -65 -44.5 -111.5t-80.5 -78.5t-104 -51t-115 -28q49 -23 89.5 -52.5t68.5 -68t40 -85.5t3 -105q-14 -88 -62.5 -153t-117 -108 t-150.5 -64t-163 -21q-98 0 -176.5 30.5t-132 86.5t-78.5 135.5t-14 178.5zM170.5 452.5q11.5 -43.5 39 -76.5t67.5 -58t85.5 -43.5t92 -33t87.5 -26.5l60 -19q57 3 119 15.5t116 39t94.5 69.5t54.5 108q12 55 0.5 98.5t-39.5 77t-68.5 58.5t-86 44.5t-92 33.5t-86.5 26 q-24 7 -47.5 14.5t-47.5 15.5q-57 -5 -113.5 -20.5t-104.5 -44t-82.5 -72.5t-47.5 -106q-12 -57 -0.5 -100.5z" />
<glyph unicode="&#xa8;" d="M451 1422q3 20 22 37.5t39 17.5q11 0 20.5 -5t16.5 -13.5t10 -18.5t2 -20q-3 -20 -22.5 -37t-39.5 -17q-21 1 -35.5 18.5t-12.5 37.5zM883 1422q3 20 22 37.5t39 17.5q21 0 36 -18.5t13 -38.5q-3 -20 -22.5 -37t-39.5 -17q-21 1 -36 18.5t-12 37.5z" />
<glyph unicode="&#xa9;" d="M68.5 407q-6.5 71 4.5 144q17 112 70 213t133 177t183 120.5t220 44.5q115 0 204.5 -46t147.5 -123t81.5 -177t7.5 -209q-17 -114 -69.5 -217.5t-132.5 -182t-183.5 -125.5t-222.5 -47q-79 0 -145 22t-118.5 61.5t-90.5 93t-60.5 117t-29 134.5zM128 551q-16 -97 2 -190 t67.5 -165.5t128.5 -117t186 -44.5t200.5 42.5t166 114t120.5 165t65 195.5q16 96 -3.5 186.5t-69.5 160t-129.5 111.5t-182.5 42q-105 0 -197.5 -40.5t-165.5 -109t-122 -159.5t-66 -191zM348 529l7 48q9 54 31.5 107.5t58 95.5t83.5 68t109 27q51 0 89.5 -16.5t64 -46.5 t35.5 -71.5t4 -89.5h-47q0 37 -7 68.5t-24 54t-45 35.5t-69 13q-50 0 -88.5 -22t-67 -57t-46.5 -78.5t-26 -86.5l-8 -49q-6 -40 -3.5 -84t18 -80.5t46 -61t81.5 -25.5q43 -1 76 12.5t58 37.5t42.5 57t29.5 70h48q-8 -49 -29 -92t-54 -74.5t-76 -49t-95 -17.5 q-62 0 -102.5 29t-63.5 73.5t-29.5 98.5t-0.5 106z" />
<glyph unicode="&#xaa;" d="M363 900q10 64 45.5 107.5t86 71t109.5 40t115 13.5h174l14 69q7 44 1.5 83.5t-24.5 69.5t-52.5 48.5t-81.5 19.5q-47 1 -90 -9.5t-79 -33t-63 -56t-42 -79.5h-55q16 56 47.5 99.5t75 73t96 44.5t109.5 15q60 0 103.5 -22.5t70.5 -60.5t36.5 -88t2.5 -105l-54 -314 q-15 -89 -4 -181l-58 -1q-2 32 -2 62t5 62q-51 -59 -119 -97t-148 -40q-47 0 -90 13.5t-74.5 40t-47 65.5t-7.5 90zM417 904q-8 -41 3 -70.5t35 -49t57.5 -29t69.5 -9.5q41 1 81.5 12.5t76.5 32.5t65.5 50t49.5 65l32 172h-166q-46 -1 -95 -8.5t-92 -27t-75 -53t-42 -85.5z " />
<glyph unicode="&#xab;" d="M252 516l3 19l348 369l72 -1l-352 -382l221 -376h-66zM576 516l3 19l348 369l72 -1l-352 -382l221 -376h-66z" />
<glyph unicode="&#xac;" d="M219 700l7 53h770l-60 -357h-53l52 304h-716z" />
<glyph unicode="&#xad;" horiz-adv-x="1203" d="M240 639l7 54h698l-7 -54h-698z" />
<glyph unicode="&#xae;" d="M68 539q17 113 69.5 214.5t132.5 177.5t183.5 120.5t221.5 44.5q116 0 205.5 -46t147 -123t80.5 -177.5t7 -210.5q-17 -113 -69.5 -215t-132.5 -178.5t-183 -121.5t-221 -45q-117 0 -206.5 46.5t-147 124t-80.5 178.5t-7 211zM123 539q-16 -98 3 -189t69 -161 t129.5 -112.5t184.5 -42.5q106 0 199 41t165.5 110.5t121 161t65.5 192.5q16 97 -3 188t-69 160.5t-129 111.5t-184 42q-106 0 -199.5 -40.5t-166 -109t-121.5 -159.5t-65 -193zM358 236l95 610h192q39 -2 75 -13.5t61.5 -33.5t38 -55t5.5 -76q-5 -33 -19.5 -58t-36 -43.5 t-48 -31.5t-55.5 -21l111 -279h-56l-104 263h-165l-41 -262h-53zM460 550h149q28 1 54.5 9t48.5 22.5t37.5 36t21.5 51.5q6 31 -2.5 53.5t-27 37.5t-44 22t-52.5 9h-147z" />
<glyph unicode="&#xaf;" d="M418 1403l6 53h610l-7 -53h-609z" />
<glyph unicode="&#xb0;" d="M478 1236q7 47 31.5 90t60.5 76.5t81 53.5t94 20q47 0 85 -21t63.5 -54.5t36.5 -76.5t4 -88q-7 -47 -31 -89.5t-59 -75t-79.5 -52.5t-92.5 -20t-87 20t-65 53t-37.5 75.5t-4.5 88.5zM533 1168.5q7 -32.5 25.5 -57.5t47.5 -40.5t66 -15.5t71.5 15t62 39.5t46.5 57.5t26 69 q7 34 1 67t-23.5 59t-45.5 42t-65 16q-38 0 -73.5 -15t-64 -40.5t-48 -59t-26.5 -69.5q-7 -35 0 -67.5z" />
<glyph unicode="&#xb1;" d="M114 -1l8 54h811l-7 -54h-812zM175 751l7 54h430l72 462h54l-72 -462h406l-7 -54h-407l-72 -462h-53l71 462h-429z" />
<glyph unicode="&#xb2;" d="M369 667l7 44l329 295q28 25 59 51.5t58.5 56.5t48 63.5t28.5 72.5t-1.5 70t-31 52.5t-53.5 33.5t-69 12q-92 0 -155 -52t-90 -136h-55q14 52 41.5 95.5t66.5 75t87.5 49t103.5 17.5q47 0 88.5 -15t71.5 -43t44 -68t6 -90q-8 -45 -31 -85t-54.5 -75.5t-67 -67 t-67.5 -59.5l-287 -248h458l-7 -49h-528z" />
<glyph unicode="&#xb3;" d="M388 883h53q-2 -44 12 -77.5t39.5 -56t61.5 -34.5t78 -12q40 0 80.5 11t74 32.5t57.5 54t32 75.5q9 48 -7 79.5t-46.5 50.5t-70.5 27.5t-78 9.5h-72l7 49h67q38 1 78 10.5t74.5 28.5t60 48.5t34.5 71.5q8 40 -2.5 70.5t-34 51.5t-56.5 32.5t-69 11.5q-85 0 -147.5 -45 t-90.5 -123h-54q14 50 42 90t65.5 68t84 43.5t98.5 15.5q47 0 90.5 -15t74.5 -43t46 -68.5t6 -91.5q-6 -37 -24 -65.5t-43.5 -50.5t-57 -37.5t-64.5 -26.5q34 -10 63 -27t49 -40.5t28.5 -54.5t2.5 -69q-8 -53 -36.5 -94.5t-69.5 -69.5t-90.5 -43t-99.5 -15q-53 0 -98.5 15 t-78.5 44t-51.5 71.5t-17.5 97.5z" />
<glyph unicode="&#xb4;" d="M576 1252l218 263l68 -1l-225 -263z" />
<glyph unicode="&#xb5;" d="M42 -416l258 1498h51l-110 -642q-7 -44 -9 -91t3.5 -92t20.5 -85.5t42 -70.5t67 -48.5t97 -18.5q88 0 160 32t126.5 87t91 127.5t54.5 153.5l112 648h54l-186 -1082h-52l39 220q-32 -53 -73 -97.5t-90 -76t-106 -49t-121 -17.5q-96 0 -168 50t-107 138l-103 -584h-51z " />
<glyph unicode="&#xb6;" d="M314 988q17 103 67 188t123.5 146.5t166.5 96.5t196 37h180l-252 -1456h-54l90 520h-116q-100 2 -181.5 37.5t-135.5 97.5t-77.5 147t-6.5 186z" />
<glyph unicode="&#xb7;" d="M566 708q1 10 7 19.5t14.5 17t19 12.5t20.5 5q22 -1 36.5 -19t11.5 -39q-2 -10 -8 -19.5t-14.5 -17t-19 -12t-20.5 -4.5q-21 1 -35.5 18.5t-11.5 38.5z" />
<glyph unicode="&#xb8;" d="M305 -435l1 49q35 2 76 9t77.5 22.5t64.5 42t37 67.5q8 37 -6.5 60t-40 36t-57 19t-58.5 10l44 120h53l-26 -77q34 -6 63 -19t49 -33.5t29.5 -49.5t3.5 -67q-8 -54 -40 -89.5t-76.5 -56.5t-96 -30.5t-97.5 -12.5z" />
<glyph unicode="&#xb9;" d="M536 1307l7 52l299 97h11l-135 -791h-53l124 720z" />
<glyph unicode="&#xba;" d="M374 1024l19 117q12 64 42 124.5t75 107t103.5 75t129.5 28.5q70 0 120 -29t80.5 -76t41 -107t1.5 -123l-19 -117q-12 -65 -42 -125t-74.5 -106.5t-103.5 -74.5t-129 -28t-120 28.5t-80.5 75.5t-41.5 107t-2 123zM425 921.5q6 -50.5 29 -90t63.5 -63.5t100.5 -24 q59 0 108 23.5t86.5 62.5t63 89.5t36.5 104.5l22 117q8 51 1.5 101.5t-29.5 90t-63.5 64.5t-99.5 25t-108.5 -23.5t-87 -63t-63 -90t-36.5 -104.5l-21 -117q-8 -52 -2 -102.5z" />
<glyph unicode="&#xbb;" d="M167 173l351 381l-218 387h66l223 -381l-2 -19l-348 -369zM501 173l351 381l-218 387h66l223 -381l-2 -19l-348 -369z" />
<glyph unicode="&#xbc;" d="M197 1329l6 47l269 87h10l-121 -712h-48l111 648zM197 172l713 1135l48 -32l-714 -1135zM503 185l4 27l447 497l55 1l-82 -482h128l-7 -44h-129l-31 -184h-48l32 184zM575 228h304l74 419l-47 -58z" />
<glyph unicode="&#xbd;" d="M173 172l713 1135l48 -32l-714 -1135zM204 1325l6 47l269 87h10l-121 -712h-48l111 648zM553 0l6 40l296 265q26 23 53.5 46.5t52.5 50.5t43.5 57.5t25.5 65.5t-1.5 63t-28 47t-48 30t-61.5 11q-83 0 -140 -47t-81 -122h-49q12 47 37 86t60 67.5t78.5 44t93.5 15.5 q42 0 79.5 -13.5t64.5 -38.5t39.5 -61t5.5 -81q-8 -41 -28.5 -77t-49 -68t-60.5 -60t-60 -54l-259 -223h413l-7 -44h-475z" />
<glyph unicode="&#xbe;" d="M127 939h48q-2 -39 10.5 -69.5t35.5 -50.5t55.5 -31t70.5 -11q36 0 72.5 10t66.5 29.5t51.5 48.5t28.5 68q9 43 -5.5 71.5t-42 45.5t-63.5 24.5t-70 8.5h-65l6 44h60q35 1 71 9.5t67 26t54 44t31 64.5q7 36 -2.5 63t-30.5 46t-51 29.5t-62 10.5q-77 0 -133 -40.5 t-81 -110.5h-49q13 45 38 81t59 61t75.5 39t88.5 14q42 0 81.5 -13.5t67.5 -38.5t41.5 -61.5t4.5 -82.5q-5 -33 -21 -59t-39 -45.5t-51.5 -33.5t-58.5 -24q31 -9 57 -24.5t44 -36.5t25.5 -49t2.5 -62q-7 -48 -32.5 -85t-62.5 -62.5t-81.5 -39t-89.5 -13.5q-48 0 -89 13.5 t-70.5 39.5t-46.5 64.5t-16 87.5zM271 164l713 1135l48 -32l-714 -1135zM526 186l4 27l447 497l55 1l-82 -482h128l-7 -44h-129l-31 -184h-48l32 184zM598 229h304l74 419l-47 -58z" />
<glyph unicode="&#xbf;" d="M146 -15q12 74 43 138t74.5 120.5t96 106.5t108.5 95q62 51 94 111t48 139l54 -1q-9 -46 -23 -85.5t-34.5 -75t-47.5 -67.5t-63 -63q-50 -43 -98 -88.5t-88 -96.5t-69 -109t-41 -126q-11 -62 -2 -118.5t38.5 -99t78 -68t115.5 -25.5q69 0 125.5 24.5t100.5 66.5t75 97.5 t48 117.5h54q-17 -74 -52 -139t-86 -114t-117.5 -77.5t-146.5 -28.5q-78 0 -136.5 30t-95.5 80.5t-51 116.5t-2 139zM639 1048q1 10 7.5 19.5t15.5 17t19.5 12t20.5 4.5q21 -1 35.5 -18.5t11.5 -38.5q-2 -10 -8 -19.5t-14.5 -17t-19 -12.5t-20.5 -5q-21 1 -36 19t-12 39z " />
<glyph unicode="&#xc0;" d="M14 0l713 1456h61l213 -1456h-54l-64 435h-598l-214 -435h-57zM310 489h566l-127 890zM622 1836h62l137 -268h-55z" />
<glyph unicode="&#xc1;" d="M14 0l713 1456h61l213 -1456h-54l-64 435h-598l-214 -435h-57zM310 489h566l-127 890zM744 1571l218 263l68 -1l-225 -263z" />
<glyph unicode="&#xc2;" d="M14 0l713 1456h61l213 -1456h-54l-64 435h-598l-214 -435h-57zM310 489h566l-127 890zM541 1584l1 14l261 238h40l190 -243l-2 -10l-65 -1l-146 196l-214 -194h-65z" />
<glyph unicode="&#xc3;" d="M14 0l713 1456h61l213 -1456h-54l-64 435h-598l-214 -435h-57zM310 489h566l-127 890zM481 1621q9 35 25 67t40 57t55.5 39.5t70.5 14.5t68.5 -19.5t57.5 -43t57.5 -42.5t67.5 -18q28 0 50 11.5t38.5 29.5t28.5 41t20 47h55q-9 -35 -25 -68t-40 -59t-55.5 -42t-71.5 -16 q-39 0 -68.5 20t-57 43.5t-57 42.5t-67.5 18q-29 0 -50.5 -10.5t-38 -27.5t-28 -39t-20.5 -46h-55z" />
<glyph unicode="&#xc4;" d="M14 0l713 1456h61l213 -1456h-54l-64 435h-598l-214 -435h-57zM310 489h566l-127 890zM527 1741q3 20 22 37.5t39 17.5q11 0 20.5 -5t16.5 -13.5t10 -18.5t2 -20q-3 -20 -22.5 -37t-39.5 -17q-21 1 -35.5 18.5t-12.5 37.5zM959 1741q3 20 22 37.5t39 17.5q21 0 36 -18.5 t13 -38.5q-3 -20 -22.5 -37t-39.5 -17q-21 1 -36 18.5t-12 37.5z" />
<glyph unicode="&#xc5;" d="M14 0l713 1456h61l213 -1456h-54l-64 435h-598l-214 -435h-57zM310 489h566l-127 890zM641 1701q5 33 21.5 64.5t41.5 55.5t56 39t66 15q34 0 61.5 -15t45.5 -40t25.5 -56t2.5 -63q-5 -33 -22 -64t-42 -54t-56.5 -37.5t-65.5 -14.5t-61 14.5t-45 38.5t-25.5 54.5 t-2.5 62.5zM694.5 1659.5q3.5 -20.5 14 -37t27.5 -26.5t40 -10q24 0 46 9.5t39 25.5t29 37t17 43q4 21 1 42.5t-13.5 38.5t-28 27.5t-41.5 10.5t-45.5 -10t-39 -26.5t-29.5 -38.5t-16 -44q-4 -21 -0.5 -41.5z" />
<glyph unicode="&#xc6;" d="M-29 0l779 1456h475l-7 -54h-415l-92 -616h349l-7 -54h-349l-101 -678h416l-7 -54h-465l64 425h-358l-227 -425h-55zM281 478h337l130 871z" />
<glyph unicode="&#xc7;" d="M131 481.5q1 72.5 11 137.5l37 218q13 71 37 145.5t59.5 145.5t82.5 133.5t105.5 110t129 75.5t152.5 29q99 1 172 -38t119.5 -103.5t67.5 -148.5t18 -174h-52q0 78 -17.5 152t-56 131.5t-100.5 92.5t-151 34q-74 -1 -137.5 -26.5t-116.5 -69.5t-95 -101.5t-74 -122 t-54 -132.5t-34 -131l-39 -220q-9 -57 -11.5 -122t6 -130t29 -124.5t57 -105.5t90.5 -74t129 -29q92 -1 167 33.5t134 92t102 132t72 153.5h54q-26 -91 -74 -175t-115 -149t-152.5 -103.5t-187.5 -37.5q-83 1 -144.5 30.5t-104 78.5t-68 113.5t-37 135.5t-10.5 143.5z M321 -444l1 49q35 2 76 9t77.5 22.5t64.5 42t37 67.5q8 37 -6.5 60t-40 36t-57 19t-58.5 10l44 120h53l-26 -77q34 -6 63 -19t49 -33.5t29.5 -49.5t3.5 -67q-8 -54 -40 -89.5t-76.5 -56.5t-96 -30.5t-97.5 -12.5z" />
<glyph unicode="&#xc8;" d="M109 0l252 1456h801l-7 -54h-750l-109 -626h656l-7 -54h-658l-116 -668h748l-7 -54h-803zM523 1836h62l137 -268h-55z" />
<glyph unicode="&#xc9;" d="M109 0l252 1456h801l-7 -54h-750l-109 -626h656l-7 -54h-658l-116 -668h748l-7 -54h-803zM644 1571l218 263l68 -1l-225 -263z" />
<glyph unicode="&#xca;" d="M109 0l252 1456h801l-7 -54h-750l-109 -626h656l-7 -54h-658l-116 -668h748l-7 -54h-803zM442 1584l1 14l261 238h40l190 -243l-2 -10l-65 -1l-146 196l-214 -194h-65z" />
<glyph unicode="&#xcb;" d="M109 0l252 1456h801l-7 -54h-750l-109 -626h656l-7 -54h-658l-116 -668h748l-7 -54h-803zM428 1741q3 20 22 37.5t39 17.5q11 0 20.5 -5t16.5 -13.5t10 -18.5t2 -20q-3 -20 -22.5 -37t-39.5 -17q-21 1 -35.5 18.5t-12.5 37.5zM860 1741q3 20 22 37.5t39 17.5 q21 0 36 -18.5t13 -38.5q-3 -20 -22.5 -37t-39.5 -17q-21 1 -36 18.5t-12 37.5z" />
<glyph unicode="&#xcc;" d="M102 0l8 54h356l234 1346h-355l8 56h783l-8 -56h-370l-234 -1346h369l-8 -54h-783zM625 1836h62l137 -268h-55z" />
<glyph unicode="&#xcd;" d="M102 0l8 54h356l234 1346h-355l8 56h783l-8 -56h-370l-234 -1346h369l-8 -54h-783zM747 1571l218 263l68 -1l-225 -263z" />
<glyph unicode="&#xce;" d="M102 0l8 54h356l234 1346h-355l8 56h783l-8 -56h-370l-234 -1346h369l-8 -54h-783zM544 1584l1 14l261 238h40l190 -243l-2 -10l-65 -1l-146 196l-214 -194h-65z" />
<glyph unicode="&#xcf;" d="M102 0l8 54h356l234 1346h-355l8 56h783l-8 -56h-370l-234 -1346h369l-8 -54h-783zM530 1741q3 20 22 37.5t39 17.5q11 0 20.5 -5t16.5 -13.5t10 -18.5t2 -20q-3 -20 -22.5 -37t-39.5 -17q-21 1 -35.5 18.5t-12.5 37.5zM962 1741q3 20 22 37.5t39 17.5q21 0 36 -18.5 t13 -38.5q-3 -20 -22.5 -37t-39.5 -17q-21 1 -36 18.5t-12 37.5z" />
<glyph unicode="&#xd0;" horiz-adv-x="1232" d="M-23 713l8 54h267l120 689h351q84 -2 151 -30t118 -74.5t85.5 -108.5t53.5 -132t22 -145.5t-8 -148.5l-30 -178q-14 -77 -43 -154t-71.5 -147.5t-97 -131t-120.5 -105.5t-142 -72t-161 -29h-361l124 713h-266zM181 54h299q77 2 146 27t129 66.5t110 97t89 120t65.5 134.5 t40.5 140l32 181q10 65 8 133t-17.5 132t-45 120.5t-74 99.5t-104.5 69t-136 28h-308l-110 -635h251l-8 -54h-253z" />
<glyph unicode="&#xd1;" d="M71 0l250 1456h49l512 -1362l234 1362h52l-250 -1456h-49l-513 1365l-234 -1365h-51zM483 1621q9 35 25 67t40 57t55.5 39.5t70.5 14.5t68.5 -19.5t57.5 -43t57.5 -42.5t67.5 -18q28 0 50 11.5t38.5 29.5t28.5 41t20 47h55q-9 -35 -25 -68t-40 -59t-55.5 -42t-71.5 -16 q-39 0 -68.5 20t-57 43.5t-57 42.5t-67.5 18q-29 0 -50.5 -10.5t-38 -27.5t-28 -39t-20.5 -46h-55z" />
<glyph unicode="&#xd2;" d="M130 481.5q1 72.5 11 137.5l37 218q13 70 37 145t59 146t82 134t105.5 111t128.5 75.5t153 27.5t144.5 -29.5t104 -79t68 -114t37 -135.5t10 -143.5t-11.5 -137.5l-37 -218q-13 -70 -36.5 -145t-59 -146t-82 -134t-104.5 -110.5t-128.5 -75.5t-152.5 -28q-83 0 -144 29.5 t-104 79t-68.5 114t-37.5 135.5t-11 143.5zM183.5 496.5q-2.5 -65.5 5.5 -130.5t28.5 -125t57 -106t90.5 -73.5t130 -27.5q75 0 138.5 25.5t116 69.5t94.5 102t73.5 123t53 133t33.5 132l39 220q9 57 11.5 122.5t-5.5 130t-28.5 124.5t-57 105.5t-91 73t-129.5 27.5 q-74 0 -137.5 -25.5t-116 -69.5t-94.5 -102t-74 -122.5t-53.5 -132.5t-33.5 -131l-39 -220q-9 -57 -11.5 -122.5zM618 1857h62l137 -268h-55z" />
<glyph unicode="&#xd3;" d="M130 481.5q1 72.5 11 137.5l37 218q13 70 37 145t59 146t82 134t105.5 111t128.5 75.5t153 27.5t144.5 -29.5t104 -79t68 -114t37 -135.5t10 -143.5t-11.5 -137.5l-37 -218q-13 -70 -36.5 -145t-59 -146t-82 -134t-104.5 -110.5t-128.5 -75.5t-152.5 -28q-83 0 -144 29.5 t-104 79t-68.5 114t-37.5 135.5t-11 143.5zM183.5 496.5q-2.5 -65.5 5.5 -130.5t28.5 -125t57 -106t90.5 -73.5t130 -27.5q75 0 138.5 25.5t116 69.5t94.5 102t73.5 123t53 133t33.5 132l39 220q9 57 11.5 122.5t-5.5 130t-28.5 124.5t-57 105.5t-91 73t-129.5 27.5 q-74 0 -137.5 -25.5t-116 -69.5t-94.5 -102t-74 -122.5t-53.5 -132.5t-33.5 -131l-39 -220q-9 -57 -11.5 -122.5zM739 1592l218 263l68 -1l-225 -263z" />
<glyph unicode="&#xd4;" d="M130 481.5q1 72.5 11 137.5l37 218q13 70 37 145t59 146t82 134t105.5 111t128.5 75.5t153 27.5t144.5 -29.5t104 -79t68 -114t37 -135.5t10 -143.5t-11.5 -137.5l-37 -218q-13 -70 -36.5 -145t-59 -146t-82 -134t-104.5 -110.5t-128.5 -75.5t-152.5 -28q-83 0 -144 29.5 t-104 79t-68.5 114t-37.5 135.5t-11 143.5zM183.5 496.5q-2.5 -65.5 5.5 -130.5t28.5 -125t57 -106t90.5 -73.5t130 -27.5q75 0 138.5 25.5t116 69.5t94.5 102t73.5 123t53 133t33.5 132l39 220q9 57 11.5 122.5t-5.5 130t-28.5 124.5t-57 105.5t-91 73t-129.5 27.5 q-74 0 -137.5 -25.5t-116 -69.5t-94.5 -102t-74 -122.5t-53.5 -132.5t-33.5 -131l-39 -220q-9 -57 -11.5 -122.5zM536 1605l1 14l261 238h40l190 -243l-2 -10l-65 -1l-146 196l-214 -194h-65z" />
<glyph unicode="&#xd5;" d="M130 481.5q1 72.5 11 137.5l37 218q13 70 37 145t59 146t82 134t105.5 111t128.5 75.5t153 27.5t144.5 -29.5t104 -79t68 -114t37 -135.5t10 -143.5t-11.5 -137.5l-37 -218q-13 -70 -36.5 -145t-59 -146t-82 -134t-104.5 -110.5t-128.5 -75.5t-152.5 -28q-83 0 -144 29.5 t-104 79t-68.5 114t-37.5 135.5t-11 143.5zM183.5 496.5q-2.5 -65.5 5.5 -130.5t28.5 -125t57 -106t90.5 -73.5t130 -27.5q75 0 138.5 25.5t116 69.5t94.5 102t73.5 123t53 133t33.5 132l39 220q9 57 11.5 122.5t-5.5 130t-28.5 124.5t-57 105.5t-91 73t-129.5 27.5 q-74 0 -137.5 -25.5t-116 -69.5t-94.5 -102t-74 -122.5t-53.5 -132.5t-33.5 -131l-39 -220q-9 -57 -11.5 -122.5zM476 1642q9 35 25 67t40 57t55.5 39.5t70.5 14.5t68.5 -19.5t57.5 -43t57.5 -42.5t67.5 -18q28 0 50 11.5t38.5 29.5t28.5 41t20 47h55q-9 -35 -25 -68 t-40 -59t-55.5 -42t-71.5 -16q-39 0 -68.5 20t-57 43.5t-57 42.5t-67.5 18q-29 0 -50.5 -10.5t-38 -27.5t-28 -39t-20.5 -46h-55z" />
<glyph unicode="&#xd6;" d="M130 481.5q1 72.5 11 137.5l37 218q13 70 37 145t59 146t82 134t105.5 111t128.5 75.5t153 27.5t144.5 -29.5t104 -79t68 -114t37 -135.5t10 -143.5t-11.5 -137.5l-37 -218q-13 -70 -36.5 -145t-59 -146t-82 -134t-104.5 -110.5t-128.5 -75.5t-152.5 -28q-83 0 -144 29.5 t-104 79t-68.5 114t-37.5 135.5t-11 143.5zM183.5 496.5q-2.5 -65.5 5.5 -130.5t28.5 -125t57 -106t90.5 -73.5t130 -27.5q75 0 138.5 25.5t116 69.5t94.5 102t73.5 123t53 133t33.5 132l39 220q9 57 11.5 122.5t-5.5 130t-28.5 124.5t-57 105.5t-91 73t-129.5 27.5 q-74 0 -137.5 -25.5t-116 -69.5t-94.5 -102t-74 -122.5t-53.5 -132.5t-33.5 -131l-39 -220q-9 -57 -11.5 -122.5zM522 1762q3 20 22 37.5t39 17.5q11 0 20.5 -5t16.5 -13.5t10 -18.5t2 -20q-3 -20 -22.5 -37t-39.5 -17q-21 1 -35.5 18.5t-12.5 37.5zM954 1762q3 20 22 37.5 t39 17.5q21 0 36 -18.5t13 -38.5q-3 -20 -22.5 -37t-39.5 -17q-21 1 -36 18.5t-12 37.5z" />
<glyph unicode="&#xd7;" d="M107 38l442 395l-284 362l42 37l282 -363l410 363l35 -41l-411 -365l307 -392l-42 -35l-305 390l-440 -390z" />
<glyph unicode="&#xd8;" d="M27 -73l165 222q-29 50 -45.5 109t-23.5 120.5t-5 123t11 117.5l37 218q13 70 37 145t59 146t82 134t105.5 111t128.5 75.5t153 27.5q57 0 103.5 -14.5t84 -40t66 -60.5t48.5 -77l156 210l66 -1l-198 -266q16 -46 24.5 -96t11.5 -100t0 -99.5t-10 -94.5l-37 -218 q-13 -70 -36.5 -145t-59 -146t-82 -134t-104.5 -110.5t-128.5 -75.5t-152.5 -28q-89 0 -152.5 33t-107.5 89l-130 -176zM172 515q-3 -55 1 -111t16.5 -110t35.5 -100l774 1044q-17 40 -41 73.5t-57 58t-75 38.5t-95 14q-74 0 -137.5 -25.5t-116 -69.5t-94.5 -102t-74 -122.5 t-53.5 -132.5t-33.5 -131l-39 -220q-8 -49 -11 -104zM255 144q36 -50 92 -80t136 -30q75 0 138.5 25.5t116 69.5t94.5 102t73.5 123t53 133t33.5 132l39 220q13 76 12 165.5t-23 172.5z" />
<glyph unicode="&#xd9;" d="M148 469l171 987h51l-170 -987q-12 -77 -1 -155t47 -140t98 -101t151 -39t165 37.5t134.5 98.5t97.5 139.5t55 159.5l172 987h52l-169 -987q-17 -93 -60.5 -181.5t-108.5 -156.5t-150.5 -109.5t-187.5 -41.5q-101 0 -172.5 43t-115 112.5t-58.5 157t-1 176.5zM607 1836 h62l137 -268h-55z" />
<glyph unicode="&#xda;" d="M148 469l171 987h51l-170 -987q-12 -77 -1 -155t47 -140t98 -101t151 -39t165 37.5t134.5 98.5t97.5 139.5t55 159.5l172 987h52l-169 -987q-17 -93 -60.5 -181.5t-108.5 -156.5t-150.5 -109.5t-187.5 -41.5q-101 0 -172.5 43t-115 112.5t-58.5 157t-1 176.5zM728 1571 l218 263l68 -1l-225 -263z" />
<glyph unicode="&#xdb;" d="M148 469l171 987h51l-170 -987q-12 -77 -1 -155t47 -140t98 -101t151 -39t165 37.5t134.5 98.5t97.5 139.5t55 159.5l172 987h52l-169 -987q-17 -93 -60.5 -181.5t-108.5 -156.5t-150.5 -109.5t-187.5 -41.5q-101 0 -172.5 43t-115 112.5t-58.5 157t-1 176.5zM525 1584 l1 14l261 238h40l190 -243l-2 -10l-65 -1l-146 196l-214 -194h-65z" />
<glyph unicode="&#xdc;" d="M148 469l171 987h51l-170 -987q-12 -77 -1 -155t47 -140t98 -101t151 -39t165 37.5t134.5 98.5t97.5 139.5t55 159.5l172 987h52l-169 -987q-17 -93 -60.5 -181.5t-108.5 -156.5t-150.5 -109.5t-187.5 -41.5q-101 0 -172.5 43t-115 112.5t-58.5 157t-1 176.5zM511 1741 q3 20 22 37.5t39 17.5q11 0 20.5 -5t16.5 -13.5t10 -18.5t2 -20q-3 -20 -22.5 -37t-39.5 -17q-21 1 -35.5 18.5t-12.5 37.5zM943 1741q3 20 22 37.5t39 17.5q21 0 36 -18.5t13 -38.5q-3 -20 -22.5 -37t-39.5 -17q-21 1 -36 18.5t-12 37.5z" />
<glyph unicode="&#xdd;" d="M235 1457h64l278 -853l581 851h64l-625 -906l-94 -549h-52l95 558zM707 1560l218 263l68 -1l-225 -263z" />
<glyph unicode="&#xde;" d="M104 0l251 1456h54l-54 -313h354q87 -2 162 -31t126.5 -81.5t75.5 -127t9 -165.5q-15 -93 -62 -167t-114.5 -126t-152 -80.5t-174.5 -30.5h-364l-57 -334h-54zM224 388h354q78 2 152.5 26.5t135 69.5t103.5 108.5t58 143.5q15 79 -4.5 143.5t-63.5 110.5t-109 71.5 t-140 27.5h-364z" />
<glyph unicode="&#xdf;" d="M108 0l196 1143q14 75 44.5 145.5t78.5 125.5t113 88t149 33q57 0 108.5 -21t88.5 -58t55.5 -88t9.5 -111q-9 -59 -35 -111.5t-55.5 -103.5t-56 -103t-36.5 -110q-9 -52 6 -97t42 -85.5t59.5 -80.5t59 -82.5t40.5 -90.5t5 -106q-11 -67 -46.5 -123t-86.5 -97t-114 -64 t-129 -24q-77 -1 -151.5 20.5t-134.5 69.5l30 47q54 -40 117.5 -62.5t130.5 -21.5q58 1 113 20.5t100 54t76.5 83t42.5 106.5q10 55 -3.5 101t-40 87t-59 79.5t-59.5 79.5t-42.5 87t-7.5 101q8 59 33 111.5t54 103.5t55 103t35 110q7 46 -5.5 86t-39.5 70t-65.5 47.5 t-83.5 18.5q-73 1 -130.5 -27t-100 -75.5t-70 -109t-40.5 -126.5l-197 -1143h-53z" />
<glyph unicode="&#xe0;" d="M121 274q10 65 39.5 114.5t73 86t97 61t111.5 39.5t118 21.5t116 7.5h263l28 158q10 69 -7.5 122t-55.5 89.5t-93.5 55.5t-120.5 19t-127.5 -17t-116 -50.5t-93.5 -82.5t-59 -113l-54 2q19 75 63.5 133.5t105.5 98.5t133 61.5t147 21.5q76 0 141.5 -23t111.5 -67.5 t67.5 -108t10.5 -143.5l-94 -542q-8 -53 -7.5 -104.5t0.5 -104.5l-1 -9h-62q-2 52 3 101.5t15 100.5q-43 -52 -95.5 -93.5t-112 -70t-124.5 -44t-133 -14.5q-63 1 -120 21.5t-97.5 58.5t-61 92t-9.5 122zM174 270q-10 -55 7 -98.5t50.5 -74t80 -47t96.5 -17.5 q73 -2 141.5 16.5t129 53t112.5 83t93 107.5l46 256h-251q-48 0 -101 -5.5t-106 -17.5t-102 -32t-89.5 -51t-68.5 -73.5t-38 -99.5zM581 1517h62l137 -268h-55z" />
<glyph unicode="&#xe1;" d="M121 274q10 65 39.5 114.5t73 86t97 61t111.5 39.5t118 21.5t116 7.5h263l28 158q10 69 -7.5 122t-55.5 89.5t-93.5 55.5t-120.5 19t-127.5 -17t-116 -50.5t-93.5 -82.5t-59 -113l-54 2q19 75 63.5 133.5t105.5 98.5t133 61.5t147 21.5q76 0 141.5 -23t111.5 -67.5 t67.5 -108t10.5 -143.5l-94 -542q-8 -53 -7.5 -104.5t0.5 -104.5l-1 -9h-62q-2 52 3 101.5t15 100.5q-43 -52 -95.5 -93.5t-112 -70t-124.5 -44t-133 -14.5q-63 1 -120 21.5t-97.5 58.5t-61 92t-9.5 122zM174 270q-10 -55 7 -98.5t50.5 -74t80 -47t96.5 -17.5 q73 -2 141.5 16.5t129 53t112.5 83t93 107.5l46 256h-251q-48 0 -101 -5.5t-106 -17.5t-102 -32t-89.5 -51t-68.5 -73.5t-38 -99.5zM702 1252l218 263l68 -1l-225 -263z" />
<glyph unicode="&#xe2;" d="M121 274q10 65 39.5 114.5t73 86t97 61t111.5 39.5t118 21.5t116 7.5h263l28 158q10 69 -7.5 122t-55.5 89.5t-93.5 55.5t-120.5 19t-127.5 -17t-116 -50.5t-93.5 -82.5t-59 -113l-54 2q19 75 63.5 133.5t105.5 98.5t133 61.5t147 21.5q76 0 141.5 -23t111.5 -67.5 t67.5 -108t10.5 -143.5l-94 -542q-8 -53 -7.5 -104.5t0.5 -104.5l-1 -9h-62q-2 52 3 101.5t15 100.5q-43 -52 -95.5 -93.5t-112 -70t-124.5 -44t-133 -14.5q-63 1 -120 21.5t-97.5 58.5t-61 92t-9.5 122zM174 270q-10 -55 7 -98.5t50.5 -74t80 -47t96.5 -17.5 q73 -2 141.5 16.5t129 53t112.5 83t93 107.5l46 256h-251q-48 0 -101 -5.5t-106 -17.5t-102 -32t-89.5 -51t-68.5 -73.5t-38 -99.5zM499 1265l1 14l261 238h40l190 -243l-2 -10l-65 -1l-146 196l-214 -194h-65z" />
<glyph unicode="&#xe3;" d="M121 274q10 65 39.5 114.5t73 86t97 61t111.5 39.5t118 21.5t116 7.5h263l28 158q10 69 -7.5 122t-55.5 89.5t-93.5 55.5t-120.5 19t-127.5 -17t-116 -50.5t-93.5 -82.5t-59 -113l-54 2q19 75 63.5 133.5t105.5 98.5t133 61.5t147 21.5q76 0 141.5 -23t111.5 -67.5 t67.5 -108t10.5 -143.5l-94 -542q-8 -53 -7.5 -104.5t0.5 -104.5l-1 -9h-62q-2 52 3 101.5t15 100.5q-43 -52 -95.5 -93.5t-112 -70t-124.5 -44t-133 -14.5q-63 1 -120 21.5t-97.5 58.5t-61 92t-9.5 122zM174 270q-10 -55 7 -98.5t50.5 -74t80 -47t96.5 -17.5 q73 -2 141.5 16.5t129 53t112.5 83t93 107.5l46 256h-251q-48 0 -101 -5.5t-106 -17.5t-102 -32t-89.5 -51t-68.5 -73.5t-38 -99.5zM439 1301q9 35 25 67t40 57t55.5 39.5t70.5 14.5t68.5 -19.5t57.5 -43t57.5 -42.5t67.5 -18q28 0 50 11.5t38.5 29.5t28.5 41t20 47h55 q-9 -35 -25 -68t-40 -59t-55.5 -42t-71.5 -16q-39 0 -68.5 20t-57 43.5t-57 42.5t-67.5 18q-29 0 -50.5 -10.5t-38 -27.5t-28 -39t-20.5 -46h-55z" />
<glyph unicode="&#xe4;" d="M121 274q10 65 39.5 114.5t73 86t97 61t111.5 39.5t118 21.5t116 7.5h263l28 158q10 69 -7.5 122t-55.5 89.5t-93.5 55.5t-120.5 19t-127.5 -17t-116 -50.5t-93.5 -82.5t-59 -113l-54 2q19 75 63.5 133.5t105.5 98.5t133 61.5t147 21.5q76 0 141.5 -23t111.5 -67.5 t67.5 -108t10.5 -143.5l-94 -542q-8 -53 -7.5 -104.5t0.5 -104.5l-1 -9h-62q-2 52 3 101.5t15 100.5q-43 -52 -95.5 -93.5t-112 -70t-124.5 -44t-133 -14.5q-63 1 -120 21.5t-97.5 58.5t-61 92t-9.5 122zM174 270q-10 -55 7 -98.5t50.5 -74t80 -47t96.5 -17.5 q73 -2 141.5 16.5t129 53t112.5 83t93 107.5l46 256h-251q-48 0 -101 -5.5t-106 -17.5t-102 -32t-89.5 -51t-68.5 -73.5t-38 -99.5zM485 1422q3 20 22 37.5t39 17.5q11 0 20.5 -5t16.5 -13.5t10 -18.5t2 -20q-3 -20 -22.5 -37t-39.5 -17q-21 1 -35.5 18.5t-12.5 37.5z M917 1422q3 20 22 37.5t39 17.5q21 0 36 -18.5t13 -38.5q-3 -20 -22.5 -37t-39.5 -17q-21 1 -36 18.5t-12 37.5z" />
<glyph unicode="&#xe5;" d="M121 274q10 65 39.5 114.5t73 86t97 61t111.5 39.5t118 21.5t116 7.5h263l28 158q10 69 -7.5 122t-55.5 89.5t-93.5 55.5t-120.5 19t-127.5 -17t-116 -50.5t-93.5 -82.5t-59 -113l-54 2q19 75 63.5 133.5t105.5 98.5t133 61.5t147 21.5q76 0 141.5 -23t111.5 -67.5 t67.5 -108t10.5 -143.5l-94 -542q-8 -53 -7.5 -104.5t0.5 -104.5l-1 -9h-62q-2 52 3 101.5t15 100.5q-43 -52 -95.5 -93.5t-112 -70t-124.5 -44t-133 -14.5q-63 1 -120 21.5t-97.5 58.5t-61 92t-9.5 122zM174 270q-10 -55 7 -98.5t50.5 -74t80 -47t96.5 -17.5 q73 -2 141.5 16.5t129 53t112.5 83t93 107.5l46 256h-251q-48 0 -101 -5.5t-106 -17.5t-102 -32t-89.5 -51t-68.5 -73.5t-38 -99.5zM599 1382q5 33 21.5 64.5t41.5 55.5t56 39t66 15q34 0 61.5 -15t45.5 -40t25.5 -56t2.5 -63q-5 -33 -22 -64t-42 -54t-56.5 -37.5 t-65.5 -14.5t-61 14.5t-45 38.5t-25.5 54.5t-2.5 62.5zM652.5 1340.5q3.5 -20.5 14 -37t27.5 -26.5t40 -10q24 0 46 9.5t39 25.5t29 37t17 43q4 21 1 42.5t-13.5 38.5t-28 27.5t-41.5 10.5t-45.5 -10t-39 -26.5t-29.5 -38.5t-16 -44q-4 -21 -0.5 -41.5z" />
<glyph unicode="&#xe6;" d="M-6.5 175q-7.5 54 1.5 109q11 69 41 131t76.5 109t107.5 75.5t134 30.5h197l33 190q8 47 4.5 88.5t-21.5 72t-53 48.5t-89 18q-50 1 -94 -14.5t-79 -44t-58.5 -68.5t-33.5 -89l-52 1q10 60 38 109.5t69.5 85t94.5 55.5t115 20q100 0 157.5 -53t57.5 -153q24 42 54.5 79 t67.5 65t81 45t95 17q79 0 128.5 -35.5t74 -91.5t28.5 -123.5t-6 -131.5l-27 -143h-539l-31 -177q-10 -59 -8.5 -123t22 -118t64.5 -89t120 -35q38 0 72.5 10.5t66 28.5t60.5 41t55 49l23 -44q-56 -60 -124 -100t-153 -40q-99 0 -163 55t-84 149q-27 -41 -60.5 -77.5 t-73.5 -65t-86 -45t-97 -16.5q-63 0 -106 27t-68 70.5t-32.5 97.5zM43.5 193q3.5 -44 20.5 -80t50 -58.5t85 -22.5q46 0 88 16.5t78 43t65.5 61.5t50.5 73l1 4q0 -1 1 -1l22 127l2 22t3 22l31 175h-185q-62 -2 -113.5 -26.5t-91 -65t-66 -93t-37.5 -110.5q-8 -43 -4.5 -87z M603 632h493l15 92q7 51 6 108t-18.5 105t-55.5 79.5t-105 31.5q-78 0 -134 -39.5t-95 -99.5t-63.5 -130.5t-39.5 -133.5z" />
<glyph unicode="&#xe7;" d="M150.5 392.5q-1.5 64.5 8.5 127.5l7 42q18 99 61 195.5t109 173t155 124t200 47.5q83 0 148 -29t109.5 -79.5t65.5 -119.5t17 -149h-53q4 69 -13 128t-54 102.5t-92.5 68t-126.5 24.5q-67 0 -124.5 -19.5t-106 -54t-88 -81t-69.5 -100.5t-51 -113t-32 -118l-8 -42 q-9 -55 -9.5 -112.5t10 -111.5t32.5 -101.5t58 -83t86.5 -56.5t117.5 -21q71 0 134 21t114.5 59.5t90 92.5t60.5 120h54q-22 -77 -65 -141t-102 -109.5t-131.5 -71t-153.5 -25.5q-74 0 -131.5 22.5t-100 61.5t-69.5 91.5t-41.5 112.5t-16 124.5zM337 -444l1 49q35 2 76 9 t77.5 22.5t64.5 42t37 67.5q8 37 -6.5 60t-40 36t-57 19t-58.5 10l44 120h53l-26 -77q34 -6 63 -19t49 -33.5t29.5 -49.5t3.5 -67q-8 -54 -40 -89.5t-76.5 -56.5t-96 -30.5t-97.5 -12.5z" />
<glyph unicode="&#xe8;" d="M139.5 387.5q-5.5 65.5 4.5 130.5l8 44q12 66 37 131.5t62 125.5t84.5 112t104.5 90t122 59.5t138 21.5q96 0 166 -39.5t113.5 -104.5t59 -148t3.5 -170l-10 -63h-821l-3 -15l-9 -44q-15 -86 -1 -172.5t57 -155.5t113.5 -112.5t166.5 -44.5q103 -1 191 39t162 109l37 -29 q-78 -81 -176.5 -126.5t-212.5 -45.5q-72 0 -132 22t-107 60t-80 89.5t-52.5 111t-25 125zM221 631h762l3 13q15 73 2.5 145.5t-49 129.5t-97 93t-141.5 36q-90 0 -166 -36t-136.5 -94.5t-105 -133.5t-72.5 -153zM569 1516h62l137 -268h-55z" />
<glyph unicode="&#xe9;" d="M139.5 387.5q-5.5 65.5 4.5 130.5l8 44q12 66 37 131.5t62 125.5t84.5 112t104.5 90t122 59.5t138 21.5q96 0 166 -39.5t113.5 -104.5t59 -148t3.5 -170l-10 -63h-821l-3 -15l-9 -44q-15 -86 -1 -172.5t57 -155.5t113.5 -112.5t166.5 -44.5q103 -1 191 39t162 109l37 -29 q-78 -81 -176.5 -126.5t-212.5 -45.5q-72 0 -132 22t-107 60t-80 89.5t-52.5 111t-25 125zM221 631h762l3 13q15 73 2.5 145.5t-49 129.5t-97 93t-141.5 36q-90 0 -166 -36t-136.5 -94.5t-105 -133.5t-72.5 -153zM690 1251l218 263l68 -1l-225 -263z" />
<glyph unicode="&#xea;" d="M139.5 387.5q-5.5 65.5 4.5 130.5l8 44q12 66 37 131.5t62 125.5t84.5 112t104.5 90t122 59.5t138 21.5q96 0 166 -39.5t113.5 -104.5t59 -148t3.5 -170l-10 -63h-821l-3 -15l-9 -44q-15 -86 -1 -172.5t57 -155.5t113.5 -112.5t166.5 -44.5q103 -1 191 39t162 109l37 -29 q-78 -81 -176.5 -126.5t-212.5 -45.5q-72 0 -132 22t-107 60t-80 89.5t-52.5 111t-25 125zM221 631h762l3 13q15 73 2.5 145.5t-49 129.5t-97 93t-141.5 36q-90 0 -166 -36t-136.5 -94.5t-105 -133.5t-72.5 -153zM488 1264l1 14l261 238h40l190 -243l-2 -10l-65 -1l-146 196 l-214 -194h-65z" />
<glyph unicode="&#xeb;" d="M139.5 387.5q-5.5 65.5 4.5 130.5l8 44q12 66 37 131.5t62 125.5t84.5 112t104.5 90t122 59.5t138 21.5q96 0 166 -39.5t113.5 -104.5t59 -148t3.5 -170l-10 -63h-821l-3 -15l-9 -44q-15 -86 -1 -172.5t57 -155.5t113.5 -112.5t166.5 -44.5q103 -1 191 39t162 109l37 -29 q-78 -81 -176.5 -126.5t-212.5 -45.5q-72 0 -132 22t-107 60t-80 89.5t-52.5 111t-25 125zM221 631h762l3 13q15 73 2.5 145.5t-49 129.5t-97 93t-141.5 36q-90 0 -166 -36t-136.5 -94.5t-105 -133.5t-72.5 -153zM473 1421q3 20 22 37.5t39 17.5q11 0 20.5 -5t16.5 -13.5 t10 -18.5t2 -20q-3 -20 -22.5 -37t-39.5 -17q-21 1 -35.5 18.5t-12.5 37.5zM905 1421q3 20 22 37.5t39 17.5q21 0 36 -18.5t13 -38.5q-3 -20 -22.5 -37t-39.5 -17q-21 1 -36 18.5t-12 37.5z" />
<glyph unicode="&#xec;" d="M128 0l8 54h385l170 974h-384l7 54h440l-178 -1028h371l-7 -54h-812zM605 1556h62l137 -268h-55z" />
<glyph unicode="&#xed;" d="M128 0l8 54h385l170 974h-384l7 54h440l-178 -1028h371l-7 -54h-812zM726 1291l218 263l68 -1l-225 -263z" />
<glyph unicode="&#xee;" d="M128 0l8 54h385l170 974h-384l7 54h440l-178 -1028h371l-7 -54h-812zM523 1304l1 14l261 238h40l190 -243l-2 -10l-65 -1l-146 196l-214 -194h-65z" />
<glyph unicode="&#xef;" d="M128 0l8 54h385l170 974h-384l7 54h440l-178 -1028h371l-7 -54h-812zM509 1461q3 20 22 37.5t39 17.5q11 0 20.5 -5t16.5 -13.5t10 -18.5t2 -20q-3 -20 -22.5 -37t-39.5 -17q-21 1 -35.5 18.5t-12.5 37.5zM941 1461q3 20 22 37.5t39 17.5q21 0 36 -18.5t13 -38.5 q-3 -20 -22.5 -37t-39.5 -17q-21 1 -36 18.5t-12 37.5z" />
<glyph unicode="&#xf0;" d="M72 465q16 101 62.5 190t116.5 155t160.5 104.5t196.5 38.5q51 0 100.5 -10.5t93 -32.5t80 -55.5t62.5 -78.5q7 137 -28 263t-120 234l-251 -124l-23 50l234 116q-69 73 -153.5 124t-177.5 89l26 48q100 -42 190 -98.5t165 -135.5l241 119l24 -50l-225 -111 q55 -76 89 -158t50 -169t14.5 -177t-16.5 -181l-13 -80q-12 -68 -36.5 -135.5t-60.5 -129.5t-83 -114.5t-104 -91.5t-124 -61.5t-142 -22.5q-98 0 -170 43t-116 112t-60 156t-2 174zM126.5 313q12.5 -76 50 -137.5t99.5 -99.5t148 -38q68 0 127.5 20t110 55t92 82.5 t73.5 103t54 115.5t34 121l15 82q3 17 5.5 32.5t4.5 32.5q-16 53 -50 93t-79 66.5t-97.5 40t-105.5 13.5q-93 0 -174 -33.5t-143.5 -92t-104.5 -137t-58 -167.5q-14 -76 -1.5 -152z" />
<glyph unicode="&#xf1;" d="M102 0l186 1082h55l-49 -260q36 58 82.5 108.5t102 88.5t119 60.5t134.5 22.5q89 0 149.5 -33t94.5 -89t43 -128.5t-3 -151.5l-119 -700h-55l121 700q11 67 5.5 130.5t-32.5 112t-77.5 78t-128.5 28.5q-71 -1 -142.5 -29.5t-133.5 -76.5t-108.5 -110.5t-67.5 -130.5 l-121 -702h-55zM404 1299q9 35 25 67t40 57t55.5 39.5t70.5 14.5t68.5 -19.5t57.5 -43t57.5 -42.5t67.5 -18q28 0 50 11.5t38.5 29.5t28.5 41t20 47h55q-9 -35 -25 -68t-40 -59t-55.5 -42t-71.5 -16q-39 0 -68.5 20t-57 43.5t-57 42.5t-67.5 18q-29 0 -50.5 -10.5t-38 -27.5 t-28 -39t-20.5 -46h-55z" />
<glyph unicode="&#xf2;" d="M115.5 391q-3.5 65 6.5 129l7 42q19 101 65.5 198t117 173t163 122.5t203.5 46.5q74 0 133 -22t103.5 -60.5t75 -91t47 -112.5t20 -125t-6.5 -129l-7 -42q-18 -101 -64.5 -198t-117 -173t-163 -122.5t-203.5 -46.5q-74 0 -133 22t-103.5 60.5t-75 91t-47.5 112.5 t-20.5 125zM173.5 349.5q11.5 -86.5 50 -156.5t105.5 -114.5t166 -44.5t181.5 42.5t146 111.5t105.5 156t60 176l8 42q9 56 7 113.5t-15.5 111.5t-39 101.5t-64 83t-90 56t-116.5 20.5q-98 0 -181 -42.5t-146.5 -111.5t-106 -156t-60.5 -176l-8 -42q-14 -84 -2.5 -170.5z M555 1515h62l137 -268h-55z" />
<glyph unicode="&#xf3;" d="M115.5 391q-3.5 65 6.5 129l7 42q19 101 65.5 198t117 173t163 122.5t203.5 46.5q74 0 133 -22t103.5 -60.5t75 -91t47 -112.5t20 -125t-6.5 -129l-7 -42q-18 -101 -64.5 -198t-117 -173t-163 -122.5t-203.5 -46.5q-74 0 -133 22t-103.5 60.5t-75 91t-47.5 112.5 t-20.5 125zM173.5 349.5q11.5 -86.5 50 -156.5t105.5 -114.5t166 -44.5t181.5 42.5t146 111.5t105.5 156t60 176l8 42q9 56 7 113.5t-15.5 111.5t-39 101.5t-64 83t-90 56t-116.5 20.5q-98 0 -181 -42.5t-146.5 -111.5t-106 -156t-60.5 -176l-8 -42q-14 -84 -2.5 -170.5z M676 1250l218 263l68 -1l-225 -263z" />
<glyph unicode="&#xf4;" d="M115.5 391q-3.5 65 6.5 129l7 42q19 101 65.5 198t117 173t163 122.5t203.5 46.5q74 0 133 -22t103.5 -60.5t75 -91t47 -112.5t20 -125t-6.5 -129l-7 -42q-18 -101 -64.5 -198t-117 -173t-163 -122.5t-203.5 -46.5q-74 0 -133 22t-103.5 60.5t-75 91t-47.5 112.5 t-20.5 125zM173.5 349.5q11.5 -86.5 50 -156.5t105.5 -114.5t166 -44.5t181.5 42.5t146 111.5t105.5 156t60 176l8 42q9 56 7 113.5t-15.5 111.5t-39 101.5t-64 83t-90 56t-116.5 20.5q-98 0 -181 -42.5t-146.5 -111.5t-106 -156t-60.5 -176l-8 -42q-14 -84 -2.5 -170.5z M474 1263l1 14l261 238h40l190 -243l-2 -10l-65 -1l-146 196l-214 -194h-65z" />
<glyph unicode="&#xf5;" d="M115.5 391q-3.5 65 6.5 129l7 42q19 101 65.5 198t117 173t163 122.5t203.5 46.5q74 0 133 -22t103.5 -60.5t75 -91t47 -112.5t20 -125t-6.5 -129l-7 -42q-18 -101 -64.5 -198t-117 -173t-163 -122.5t-203.5 -46.5q-74 0 -133 22t-103.5 60.5t-75 91t-47.5 112.5 t-20.5 125zM173.5 349.5q11.5 -86.5 50 -156.5t105.5 -114.5t166 -44.5t181.5 42.5t146 111.5t105.5 156t60 176l8 42q9 56 7 113.5t-15.5 111.5t-39 101.5t-64 83t-90 56t-116.5 20.5q-98 0 -181 -42.5t-146.5 -111.5t-106 -156t-60.5 -176l-8 -42q-14 -84 -2.5 -170.5z M413 1299q9 35 25 67t40 57t55.5 39.5t70.5 14.5t68.5 -19.5t57.5 -43t57.5 -42.5t67.5 -18q28 0 50 11.5t38.5 29.5t28.5 41t20 47h55q-9 -35 -25 -68t-40 -59t-55.5 -42t-71.5 -16q-39 0 -68.5 20t-57 43.5t-57 42.5t-67.5 18q-29 0 -50.5 -10.5t-38 -27.5t-28 -39 t-20.5 -46h-55z" />
<glyph unicode="&#xf6;" d="M115.5 391q-3.5 65 6.5 129l7 42q19 101 65.5 198t117 173t163 122.5t203.5 46.5q74 0 133 -22t103.5 -60.5t75 -91t47 -112.5t20 -125t-6.5 -129l-7 -42q-18 -101 -64.5 -198t-117 -173t-163 -122.5t-203.5 -46.5q-74 0 -133 22t-103.5 60.5t-75 91t-47.5 112.5 t-20.5 125zM173.5 349.5q11.5 -86.5 50 -156.5t105.5 -114.5t166 -44.5t181.5 42.5t146 111.5t105.5 156t60 176l8 42q9 56 7 113.5t-15.5 111.5t-39 101.5t-64 83t-90 56t-116.5 20.5q-98 0 -181 -42.5t-146.5 -111.5t-106 -156t-60.5 -176l-8 -42q-14 -84 -2.5 -170.5z M459 1420q3 20 22 37.5t39 17.5q11 0 20.5 -5t16.5 -13.5t10 -18.5t2 -20q-3 -20 -22.5 -37t-39.5 -17q-21 1 -35.5 18.5t-12.5 37.5zM891 1420q3 20 22 37.5t39 17.5q21 0 36 -18.5t13 -38.5q-3 -20 -22.5 -37t-39.5 -17q-21 1 -36 18.5t-12 37.5z" />
<glyph unicode="&#xf7;" d="M127 686l7 52h970l-7 -52h-970zM502 303q1 10 7 19.5t14.5 17t19 12.5t20.5 5q21 -1 36 -19t12 -39q-2 -10 -8 -19.5t-15 -17t-19.5 -12t-20.5 -4.5q-21 1 -35.5 18.5t-10.5 38.5zM636 1081q1 10 7.5 19.5t15 17t19 12.5t20.5 5q21 -1 36 -19t12 -39q-2 -10 -8 -19.5 t-15 -17t-19.5 -12t-20.5 -4.5q-21 1 -35.5 18.5t-11.5 38.5z" />
<glyph unicode="&#xf8;" d="M72 -144l154 239q-36 40 -60 89.5t-36.5 104.5t-14.5 114t7 117l7 42q19 101 65.5 198t117 173t163 122.5t203.5 46.5q50 0 92.5 -10.5t79.5 -29.5l100 156h64l-119 -184q50 -37 84.5 -90t53.5 -115.5t23 -131t-6 -135.5l-7 -42q-18 -101 -64.5 -198t-117 -173 t-163 -122.5t-203.5 -46.5q-72 0 -128.5 20.5t-100.5 55.5l-129 -200h-65zM168.5 418.5q0.5 -51.5 10 -100.5t29 -94t49.5 -81l563 873q-30 15 -65.5 23.5t-76.5 8.5q-98 0 -181 -42.5t-146.5 -111.5t-106 -156t-60.5 -176l-8 -42q-8 -50 -7.5 -101.5zM296 103 q38 -32 87 -50.5t112 -18.5q99 0 181.5 42.5t146 111.5t105.5 156t60 176l8 42q9 59 6.5 120t-18.5 117.5t-45.5 105t-73.5 82.5z" />
<glyph unicode="&#xf9;" d="M171 240.5q-9 74.5 3 154.5l118 687h54l-119 -689q-11 -66 -5.5 -130.5t32.5 -115t77 -81.5t128 -32q69 0 137 20.5t126.5 59.5t102.5 94.5t64 124.5l128 749h56l-186 -1082h-56l38 193q-72 -102 -176.5 -157.5t-231.5 -55.5q-90 0 -151 35t-95.5 93t-43.5 132.5z M522 1517h62l137 -268h-55z" />
<glyph unicode="&#xfa;" d="M171 240.5q-9 74.5 3 154.5l118 687h54l-119 -689q-11 -66 -5.5 -130.5t32.5 -115t77 -81.5t128 -32q69 0 137 20.5t126.5 59.5t102.5 94.5t64 124.5l128 749h56l-186 -1082h-56l38 193q-72 -102 -176.5 -157.5t-231.5 -55.5q-90 0 -151 35t-95.5 93t-43.5 132.5z M643 1252l218 263l68 -1l-225 -263z" />
<glyph unicode="&#xfb;" d="M171 240.5q-9 74.5 3 154.5l118 687h54l-119 -689q-11 -66 -5.5 -130.5t32.5 -115t77 -81.5t128 -32q69 0 137 20.5t126.5 59.5t102.5 94.5t64 124.5l128 749h56l-186 -1082h-56l38 193q-72 -102 -176.5 -157.5t-231.5 -55.5q-90 0 -151 35t-95.5 93t-43.5 132.5z M441 1265l1 14l261 238h40l190 -243l-2 -10l-65 -1l-146 196l-214 -194h-65z" />
<glyph unicode="&#xfc;" d="M171 240.5q-9 74.5 3 154.5l118 687h54l-119 -689q-11 -66 -5.5 -130.5t32.5 -115t77 -81.5t128 -32q69 0 137 20.5t126.5 59.5t102.5 94.5t64 124.5l128 749h56l-186 -1082h-56l38 193q-72 -102 -176.5 -157.5t-231.5 -55.5q-90 0 -151 35t-95.5 93t-43.5 132.5z M427 1422q3 20 22 37.5t39 17.5q11 0 20.5 -5t16.5 -13.5t10 -18.5t2 -20q-3 -20 -22.5 -37t-39.5 -17q-21 1 -35.5 18.5t-12.5 37.5zM859 1422q3 20 22 37.5t39 17.5q21 0 36 -18.5t13 -38.5q-3 -20 -22.5 -37t-39.5 -17q-21 1 -36 18.5t-12 37.5z" />
<glyph unicode="&#xfd;" d="M-33 -426l5 51l38 -6t39 -3q53 0 99.5 17t85.5 46.5t72 68.5t59 82l106 177l-307 1076h61l285 -1009l18 31l597 976h66l-768 -1261q-31 -51 -68.5 -97.5t-82.5 -81.5t-98.5 -56.5t-117.5 -21.5q-23 0 -44.5 3t-44.5 8zM688 1252l218 263l68 -1l-225 -263z" />
<glyph unicode="&#xfe;" d="M38 -416l336 1952h54l-114 -638q36 44 79.5 81.5t93 64.5t104.5 42.5t113 15.5q74 0 128 -24.5t91.5 -66.5t59 -97t30.5 -116t7.5 -124.5t-10.5 -121.5l-3 -21q-11 -62 -31.5 -127t-50 -126t-69.5 -115t-90 -94.5t-111 -64.5t-133 -24q-50 0 -98.5 11.5t-92 34t-79 56.5 t-59.5 79l-101 -577h-54zM206 258q13 -54 43.5 -96t73 -70.5t94 -43t105.5 -14.5q65 1 119 22.5t98.5 58.5t79 86t60.5 104t44 113t28 113l4 21q8 49 11 105t-2.5 111t-22 105.5t-47 89t-76.5 61.5t-112 24q-65 0 -125 -20t-112.5 -55t-95 -82.5t-73.5 -102.5z" />
<glyph unicode="&#xff;" d="M-33 -426l5 51l38 -6t39 -3q53 0 99.5 17t85.5 46.5t72 68.5t59 82l106 177l-307 1076h61l285 -1009l18 31l597 976h66l-768 -1261q-31 -51 -68.5 -97.5t-82.5 -81.5t-98.5 -56.5t-117.5 -21.5q-23 0 -44.5 3t-44.5 8zM471 1422q3 20 22 37.5t39 17.5q11 0 20.5 -5 t16.5 -13.5t10 -18.5t2 -20q-3 -20 -22.5 -37t-39.5 -17q-21 1 -35.5 18.5t-12.5 37.5zM903 1422q3 20 22 37.5t39 17.5q21 0 36 -18.5t13 -38.5q-3 -20 -22.5 -37t-39.5 -17q-21 1 -36 18.5t-12 37.5z" />
<glyph unicode="&#x152;" d="M53.5 451q2.5 66 12.5 125l52 304q12 65 32 133t49.5 132t69.5 121.5t90.5 101t113 69.5t138.5 29q54 2 107.5 -2.5t108.5 -7.5h479l-8 -54h-470l-109 -626h405l-8 -54h-406l-116 -668h469l-8 -54h-471q-54 -3 -108 -8t-109 -3q-77 2 -131.5 30t-91 73.5t-57 104.5 t-28.5 123.5t-5.5 130.5zM107 466q-4 -59 0.5 -117t20 -112t45.5 -96t77.5 -68.5t116.5 -29.5q44 -2 87.5 -1t87.5 5l241 1361q-42 4 -85 5t-86 -1q-102 -5 -177.5 -55t-128 -126.5t-85 -168.5t-48.5 -180l-53 -306q-9 -51 -13 -110z" />
<glyph unicode="&#x153;" d="M-26 359.5q2 53.5 9 100.5l28 162q9 51 25.5 106.5t40 109t56 101t73.5 84t92 58t112 21.5t106 -23.5t75 -62.5t46 -89.5t21 -105.5q23 51 54 101t71 90t90.5 65t112.5 25q54 0 93.5 -18t66 -49t41.5 -71t21 -85t4.5 -91t-8.5 -88l-28 -143h-532l-21 -117 q-6 -36 -9 -79.5t0.5 -88.5t15 -87t33.5 -75t56 -53.5t84 -21.5q37 -1 71.5 8t66.5 24.5t61.5 36t58.5 41.5l22 -44q-30 -25 -62.5 -47t-67.5 -38.5t-72 -26t-77 -9.5q-59 1 -101.5 25t-71 63t-44.5 88.5t-20 101.5q-24 -53 -56.5 -102.5t-74 -88.5t-93.5 -63t-115 -24 q-62 0 -106.5 22.5t-74.5 60.5t-46.5 87t-22.5 102.5t-4 107zM27 282q3 -47 14.5 -92t34.5 -79.5t60 -55.5t91 -21q53 0 97 19.5t79.5 52.5t63 76t48 90.5t34.5 95.5t22 92l29 162q6 38 9.5 84.5t0 93.5t-14.5 91.5t-34 79.5t-60 56t-90 21t-96.5 -19.5t-79.5 -52.5t-64 -76 t-48.5 -90.5t-35 -96t-22.5 -91.5l-28 -162q-6 -38 -9.5 -84.5t-0.5 -93.5zM650 611h487l15 81q6 33 9 72t-0.5 78.5t-14 76.5t-31 65.5t-52 46t-76.5 17.5q-52 0 -94.5 -20t-76.5 -53t-60 -76.5t-46 -90.5t-34 -94.5t-23 -88.5z" />
<glyph unicode="&#x178;" d="M235 1457h64l278 -853l581 851h64l-625 -906l-94 -549h-52l95 558zM490 1730q3 20 22 37.5t39 17.5q11 0 20.5 -5t16.5 -13.5t10 -18.5t2 -20q-3 -20 -22.5 -37t-39.5 -17q-21 1 -35.5 18.5t-12.5 37.5zM922 1730q3 20 22 37.5t39 17.5q21 0 36 -18.5t13 -38.5 q-3 -20 -22.5 -37t-39.5 -17q-21 1 -36 18.5t-12 37.5z" />
<glyph unicode="&#x2c6;" d="M490 1265l1 14l261 238h40l190 -243l-2 -10l-65 -1l-146 196l-214 -194h-65z" />
<glyph unicode="&#x2dc;" d="M258 1287q9 35 25 67t40 57t55.5 39.5t70.5 14.5t68.5 -19.5t57.5 -43t57.5 -42.5t67.5 -18q28 0 50 11.5t38.5 29.5t28.5 41t20 47h55q-9 -35 -25 -68t-40 -59t-55.5 -42t-71.5 -16q-39 0 -68.5 20t-57 43.5t-57 42.5t-67.5 18q-29 0 -50.5 -10.5t-38 -27.5t-28 -39 t-20.5 -46h-55z" />
<glyph unicode="&#x2000;" horiz-adv-x="937" />
<glyph unicode="&#x2001;" horiz-adv-x="1875" />
<glyph unicode="&#x2002;" horiz-adv-x="937" />
<glyph unicode="&#x2003;" horiz-adv-x="1875" />
<glyph unicode="&#x2004;" horiz-adv-x="625" />
<glyph unicode="&#x2005;" horiz-adv-x="468" />
<glyph unicode="&#x2006;" horiz-adv-x="312" />
<glyph unicode="&#x2007;" horiz-adv-x="312" />
<glyph unicode="&#x2008;" horiz-adv-x="234" />
<glyph unicode="&#x2009;" horiz-adv-x="375" />
<glyph unicode="&#x200a;" horiz-adv-x="104" />
<glyph unicode="&#x2010;" horiz-adv-x="1203" d="M240 639l7 54h698l-7 -54h-698z" />
<glyph unicode="&#x2011;" horiz-adv-x="1203" d="M240 639l7 54h698l-7 -54h-698z" />
<glyph unicode="&#x2012;" horiz-adv-x="1203" d="M240 639l7 54h698l-7 -54h-698z" />
<glyph unicode="&#x2013;" d="M105 721l11 54h1054l-9 -54h-1056z" />
<glyph unicode="&#x2014;" d="M114 721l11 54h1054l-9 -54h-1056z" />
<glyph unicode="&#x2018;" d="M644 1168l17 104q30 162 148 282l34 -34q-47 -55 -80 -115t-47 -131l-18 -106h-54z" />
<glyph unicode="&#x2019;" d="M610 1185q48 54 81 114.5t47 131.5l19 105h53l-16 -103q-32 -165 -150 -282z" />
<glyph unicode="&#x201a;" d="M362 -148q48 55 81.5 114.5t47.5 131.5l23 130h53l-21 -128q-15 -83 -53 -153t-97 -129z" />
<glyph unicode="&#x201c;" d="M487 1168l17 104q30 162 148 282l34 -34q-47 -55 -80 -115t-47 -131l-18 -106h-54zM775 1168l17 104q30 162 148 282l34 -34q-47 -55 -80 -115t-47 -131l-18 -106h-54z" />
<glyph unicode="&#x201d;" d="M518 1185q48 54 81 114.5t47 131.5l19 105h53l-16 -103q-32 -165 -150 -282zM798 1185q48 54 81 114.5t47 131.5l19 105h53l-16 -103q-32 -165 -150 -282z" />
<glyph unicode="&#x201e;" d="M244 -148q46 55 79.5 115t47.5 131l22 130h54l-21 -128q-15 -82 -52.5 -152t-96.5 -130zM445 -148q47 55 80 115t47 131l23 130h54l-21 -128q-30 -164 -150 -282z" />
<glyph unicode="&#x2022;" d="M451 703l5 30q7 33 24 62t41 51t54.5 34.5t65.5 12.5q34 0 61.5 -12.5t46.5 -34t27.5 -51t5.5 -62.5l-5 -30q-7 -33 -24 -62t-41.5 -50t-55 -33.5t-65.5 -12.5t-62 12t-45.5 33.5t-27 50.5t-5.5 62z" />
<glyph unicode="&#x2026;" d="M152 54q1 10 7.5 20.5t15.5 19t20 13.5t22 5q12 0 22 -5.5t17 -14.5t10.5 -20t1.5 -22q-4 -21 -24.5 -38.5t-42.5 -17.5q-23 1 -38 19.5t-11 40.5zM476 54q1 10 7.5 20.5t15.5 19t20 13.5t22 5q12 0 22 -5.5t17 -14.5t10.5 -20t1.5 -22q-4 -21 -24.5 -38.5t-42.5 -17.5 q-23 1 -38 19.5t-11 40.5zM792 54q1 10 7.5 20.5t15.5 19t20 13.5t22 5q12 0 22 -5.5t17 -14.5t10.5 -20t1.5 -22q-4 -21 -24.5 -38.5t-42.5 -17.5q-23 1 -38 19.5t-11 40.5z" />
<glyph unicode="&#x202f;" horiz-adv-x="375" />
<glyph unicode="&#x2039;" d="M410 551l3 19l348 369l72 -1l-352 -382l221 -376h-66z" />
<glyph unicode="&#x203a;" d="M345 173l351 381l-218 387h66l223 -381l-2 -19l-348 -369z" />
<glyph unicode="&#x205f;" horiz-adv-x="468" />
<glyph unicode="&#x20ac;" d="M112 584l8 55h198l33 191h-196l8 56h196l7 36q22 114 74.5 214.5t131 176t180 119.5t223.5 44q54 0 107 -9t107 -22l-9 -58q-50 16 -101 25.5t-104 9.5q-111 0 -203 -39t-163 -106.5t-119 -158.5t-70 -194l-7 -38h441l-8 -56h-440l-34 -191h439l-8 -55h-437l-10 -50 q-18 -100 -3 -190.5t62 -159.5t125.5 -110t186.5 -41q57 0 112 9.5t110 23.5l-8 -56q-53 -14 -106 -22.5t-108 -8.5q-119 0 -207 45.5t-143 121.5t-74.5 176.5t-0.5 211.5l9 50h-199z" />
<glyph unicode="&#x2122;" d="M241 1399l8 57h385l-8 -57h-166l-82 -480h-56l82 480h-163zM625 919l91 537h67l91 -456l250 455l69 1l-91 -537h-55l74 427l-230 -427h-52l-81 451l-78 -451h-55z" />
<glyph unicode="&#x25fc;" horiz-adv-x="1085" d="M0 0v1085h1085v-1085h-1085z" />
</font>
</defs>
</svg>
